Моди / Maudie (2016) BDRip 720p | Sub

 
 Статистика раздачи 
Размер: 5.47 ГБ   |  Зарегистрирован: 14 янв 2018, 00:03   |   .torrent скачан: 0 раз
Сидеров: 1  [ 0 байт/сек ]     Личеров: 0  [ 0 байт/сек ]  
  

Моди / Maudie (2016) BDRip 720p | Sub

Сообщение graf_t » 14 янв 2018, 00:03

Информация о фильме
Название: Моди
Оригинальное название: Maudie
Год выхода: 2016
Жанр: драма, мелодрама, биография
Режиссер: Эшлин Уолш
В ролях: Итан Хоук, Салли Хокинс, Кари Матчетт, Захари Беннетт, Габриель Роз и др.

О фильме:
Правдивая история невероятного романа между скупым рыботорговцем Эвереттом и его домохозяйкой Моди, которую искалечила болезнь. Холостяк-затворник, покоренный её силой и светом, помогает Моди раскрыться в творчестве и стать всенародно любимой художницей.


Страна: Ирландия, Канада
Продолжительность: 01:55:55
Перевод: Субтитры



Общее
Уникальный идентификатор : 0 (0x0)
Полное имя : D:DownloadsМои раздачиMaudie 2016Maudie 2016.mkv
Формат : Matroska
Версия формата : Version 4 / Version 2
Размер файла : 5,47 Гбайт
Продолжительность : 1 ч. 55 м.
Общий поток : 6750 Кбит/сек
Дата кодирования : UTC 2010-02-22 21:41:29
Программа кодирования : no_variable_data
Библиотека кодирования : no_variable_data

Видео
Идентификатор : 1
Формат : AVC
Формат/Информация : Advanced Video Codec
Профиль формата : High@L4.1
Параметр CABAC формата : Да
Параметр RefFrames формата : 5 кадров
Идентификатор кодека : V_MPEG4/ISO/AVC
Продолжительность : 1 ч. 55 м.
Битрейт : 5238 Кбит/сек
Ширина : 1280 пикселей
Высота : 688 пикселей
Соотношение сторон : 1,85:1
Режим частоты кадров : Постоянный
Частота кадров : 24,000 кадра/сек
Цветовое пространство : YUV
Субдискретизация насыщенности : 4:2:0
Битовая глубина : 8 бит
Тип развёртки : Прогрессивная
Бит/(Пиксели*Кадры) : 0.248
Размер потока : 4,13 Гбайт (76%)
Библиотека кодирования : x264 core 152 r2851 ba24899
Настройки программы : cabac=1 / ref=5 / deblock=1:-3:-3 / analyse=0x3:0x113 / me=umh / subme=8 / psy=1 / psy_rd=1.00:0.00 / mixed_ref=1 / me_range=24 / chroma_me=1 / trellis=1 / 8x8dct=1 / cqm=0 / deadzone=21,11 / fast_pskip=1 / chroma_qp_offset=-2 / threads=21 / lookahead_threads=3 / sliced_threads=0 / nr=0 / decimate=1 / interlaced=0 / bluray_compat=0 / constrained_intra=0 / bframes=3 / b_pyramid=2 / b_adapt=2 / b_bias=0 / direct=3 / weightb=1 / open_gop=0 / weightp=2 / keyint=240 / keyint_min=24 / scenecut=40 / intra_refresh=0 / rc_lookahead=50 / rc=2pass / mbtree=1 / bitrate=5238 / ratetol=1.0 / qcomp=0.60 / qpmin=0 / qpmax=69 / qpstep=4 / cplxblur=20.0 / qblur=0.5 / ip_ratio=1.40 / aq=3:0.80
Default : Да
Forced : Нет
Statistics Tags Issue : no_variable_data 1970-01-01 00:00:00 / no_variable_data 2010-02-22 21:41:29
FromStats_BitRate : 5238034
FromStats_Duration : 01:55:55.667000000
FromStats_FrameCount : 166936
FromStats_StreamSize : 4554252890

Аудио
Идентификатор : 2
Формат : DTS
Формат/Информация : Digital Theater Systems
Режим : 16
Параметр Endianness формата : Big
Идентификатор кодека : A_DTS
Продолжительность : 1 ч. 55 м.
Вид битрейта : Постоянный
Битрейт : 1509 Кбит/сек
Каналы : 6 каналов
Расположение каналов : Front: L C R, Side: L R, LFE
Частота : 48,0 КГц
Частота кадров : 93,750 кадра/сек (512 SPF)
Битовая глубина : 24 бит
Метод сжатия : С потерями
Размер потока : 1,22 Гбайт (22%)
Язык : English
Default : Да
Forced : Нет
Statistics Tags Issue : no_variable_data 1970-01-01 00:00:00 / no_variable_data 2010-02-22 21:41:29
FromStats_BitRate : 1508999
FromStats_Duration : 01:55:55.670000000
FromStats_FrameCount : 652094
FromStats_StreamSize : 1312013128

Текст #1
Идентификатор : 3
Формат : UTF-8
Идентификатор кодека : S_TEXT/UTF8
Идентификатор кодека/Информация : UTF-8 Plain Text
Язык : English
Default : Нет
Forced : Нет
Statistics Tags Issue : no_variable_data 1970-01-01 00:00:00 / no_variable_data 2010-02-22 21:41:29
FromStats_BitRate : 34
FromStats_Duration : 01:53:01.792000000
FromStats_FrameCount : 1078
FromStats_StreamSize : 29177

Текст #2
Идентификатор : 4
Формат : UTF-8
Идентификатор кодека : S_TEXT/UTF8
Идентификатор кодека/Информация : UTF-8 Plain Text
Заголовок : SDH
Язык : English
Default : Нет
Forced : Нет
Statistics Tags Issue : no_variable_data 1970-01-01 00:00:00 / no_variable_data 2010-02-22 21:41:29
FromStats_BitRate : 36
FromStats_Duration : 01:54:23.458000000
FromStats_FrameCount : 1161
FromStats_StreamSize : 30995

Меню
00:00:00.000 : en:00:00:00.000
00:05:53.250 : en:00:05:53.250
00:12:19.167 : en:00:12:19.167
00:17:42.875 : en:00:17:42.875
00:23:57.917 : en:00:23:57.917
00:30:08.625 : en:00:30:08.625
00:36:04.292 : en:00:36:04.292
00:41:37.208 : en:00:41:37.208
00:48:23.125 : en:00:48:23.125
00:54:18.750 : en:00:54:18.750
01:00:23.917 : en:01:00:23.917
01:05:23.333 : en:01:05:23.333
01:09:40.417 : en:01:09:40.417
01:14:30.292 : en:01:14:30.292
01:22:00.333 : en:01:22:00.333
01:28:02.833 : en:01:28:02.833
01:33:05.167 : en:01:33:05.167
01:38:15.250 : en:01:38:15.250
01:43:46.167 : en:01:43:46.167
01:50:13.375 : en:01:50:13.375


Файл
Кодек: Matroska Version 4 / Version 2
Качество: BDRip 720p
Видео: 1280х688, 5238 Кбит/сек, 24,000 кадра/сек
Звук: англ, DTS, 1509 Кбит/сек, 48,0 КГц
Субтитры: внешние (рус)

 
Не забывайте говорить Спасибо. Не уходите с раздачи!   
Торрент: Зарегистрирован [14 янв 2018, 00:03] Для скачивания .torrent
необходима регистрация
Или скачать с помощью
MediaGet
Статус:
Проверен
 
.torrent скачан: 0 раз
Хэш: fc6ab466c3fbacdb716554270a244996443f6b23
Размер: 5.47 ГБ (5 868 481 793 байт)
Стать Автором раздачи
 
 
Раздал: 100 ГБ
Скачал: 0 байт
Ратио: Seed.
Сообщения: 55337
Зарегистрирован: 31 мар 2015, 18:04


  • Похожие торренты
    Ответы
    Просмотры
    Последнее сообщение

Вернуться в Зарубежные фильмы 2016-2017 года

Ресурс не предоставляет электронные версии произведений, а занимается лишь коллекционированием и каталогизацией ссылок, присылаемых и публикуемых на форуме нашими читателями. Если вы являетесь правообладателем какого-либо представленного материала и не желаете чтобы ссылка на него находилась в нашем каталоге, свяжитесь с нами и мы незамедлительно удалим её. Файлы для обмена на трекере предоставлены пользователями сайта, и администрация не несёт ответственности за их содержание. Просьба не заливать файлы, защищенные авторскими правами, а также файлы нелегального содержания!
cron