В поисках утраченного (56 выпускoв) (Елена Смелая) [1996-2000, Документальный цикл, DVB]

 
 Статистика раздачи 
Размер: 33.46 ГБ   |  Зарегистрирован: 13 янв 2018, 23:34   |   .torrent скачан: 0 раз
Сидеров: 1  [ 0 байт/сек ]     Личеров: 0  [ 0 байт/сек ]  
  

В поисках утраченного (56 выпускoв) (Елена Смелая) [1996-2000, Документальный цикл, DVB]

Сообщение Nakazhu » 13 янв 2018, 23:36

В поисках утраченного
Год выпуска: 1996-2000
Страна: Россия, АТВ («Авторское телевидение»)
Жанр: Документальный цикл
Продолжительность: 00:34:58
Перевод: Не требуется
Русские субтитры: нет
Релиз: , dean10
Рип: , dean10,
Режиссер: Елена Смелая
Описание:
Тематическая программа об искусстве. Автор и ведущий Глеб Скороходов рассказывает о ведущих мастерах театра и кино, чьи имена сейчас несправедливо забываются. В передачах: встречи с народным артистом республики Владимиром Володиным — замечательным комедийным актером, сыгравшим незабываемые роли в фильмах «Волга-Волга», «Кубанские казаки», «Первая перчатка», «Цирк», с выдающейся актрисой Фаиной Георгиевной Раневской, чьи роли в фильмах «Весна», «Свадьба» вошли в золотой фонд российского кинематографа, Петром Алейниковым («Семеро смелых», «Трактористы», «Большая жизнь»). Друзья и коллеги вспоминают о Сергее Герасимове и Станиславе Ростоцком. Выпуски-воспоминания также были посвящены: Борису Бабочкину, Исааку Дунаевскому, Любови Орловой, Леониду Гайдаю, Татьяне Пельтцер, Павлу Кадочникову, Соломону Михоэлсу и многим-многим другим. Лауреат ТЭФИ-97 в номинации «Лучшая программа об искусстве».
13.01.2018 _ добавил: Миллер Глен
Качество: DVB
Формат: MP4
Видео: AVC, 720x576 (16:9), 25 fps, 2 450 kb/s
Аудио: RU, MP2, 48 kHz, 2 ch, 192 Kbps
Сэмпл: http://multi-up.com/1175343
General
Complete name : C:\Devis Bett.mp4
Format : MPEG-4
Format profile : Base Media
Codec ID : isom (isom/iso2/avc1/mp41)
File size : 663 MiB
Duration : 34 min 59 s
Overall bit rate mode : Variable
Overall bit rate : 2 648 kb/s
Writing application : VideoReDo (Lavf56.25.101)
Video
ID : 1
Format : AVC
Format/Info : Advanced Video Codec
Format profile : Main@L3
Format settings : CABAC / 3 Ref Frames
Format settings, CABAC : Yes
Format settings, RefFrames : 3 frames
Codec ID : avc1
Codec ID/Info : Advanced Video Coding
Duration : 34 min 59 s
Bit rate mode : Variable
Bit rate : 2 450 kb/s
Maximum bit rate : 9 800 kb/s
Width : 720 pixels
Height : 576 pixels
Display aspect ratio : 4:3
Frame rate mode : Variable
Frame rate : 25.000 FPS
Minimum frame rate : 25.000 FPS
Maximum frame rate : 26.471 FPS
Standard : PAL
Color space : YUV
Chroma subsampling : 4:2:0
Bit depth : 8 bits
Scan type : Interlaced
Scan type, store method : Separated fields
Scan order : Top Field First
Bits/(Pixel*Frame) : 0.236
Stream size : 613 MiB (93%)
Color range : Limited
Audio
ID : 2
Format : MPEG Audio
Format version : Version 1
Format profile : Layer 2
Codec ID : mp4a-6B
Duration : 34 min 59 s
Duration_LastFrame : -24 ms
Bit rate mode : Constant
Bit rate : 192 kb/s
Channel(s) : 2 channels
Sampling rate : 48.0 kHz
Compression mode : Lossy
Stream size : 48.1 MiB (7%)
Language : Russian
Default : Yes
Alternate group : 1
Внимание! Раздача ведётся путём добавления новых серий; при каждом добавлении создётся новый торрент. Чтобы начать докачку новой серии, пользователям необходимо сделать следующее:
(1) остановить скачивание,
(2) удалить старый торрент у себя из клиента (старые серии удалять не надо),
(3) скачать новый торрент и запустить его у себя в клиенте вместо старого, при этом указать клиенту путь в старую папку куда и должно происходить скачивание новых серий.
Ваш клиент при этом должен произвести хеширование (проверку) старой папки (если не производит сам - помогите ему сделать это), и будет докачивать только те серии которых у вас
ещё нет. Старые серии при этом не удаляются, а продолжают раздаваться!
Алейников Петр
Астангов Михаил
Бабочкин Борис
Баталов Николай
Ванин Василий
Виноградов Георгий
Вицин Георгий
Володин Владимир
Гайдай Леонид
Гарин Эраст
Гарлэнд Джуди
Грибов Алексей
Добржанская Любовь
Дунаевский Исаак
Дурбин Дина
Дэвис Бетт
Жизнева Ольга
Зарубина Ирина
Защипина Наталья
Ильинский Игорь
Кадочников Павел
Караваева Валентина
Кипура Ян
Кларк Гейбл
Крючков Николай
Кузнецов Михаил
Лемешев Сергей
Леонов Евгений
Лоллобриджида Джина
Макарова Тамара
Макдональд Джанет
Марецкая Вера
Мартинсон Сергей
Меркурьев Василий
Миллер Глен
Михоэлс Соломон
Монтьель Сара
Окуневская Татьяна
Орлова Любовь
Отс Георг
Пельтцер Татьяна
Переверзев Иван
Раневская Фаина
Роу Александр
Самойлов Евгений
Смирнова Лидия
Торрес Лолита
Фёдорова Зоя
Ханаева Евгения
Черкасов Николай
Чирков Борис
Шульженко Клавдия
Щербаков Петр
Эдди Рознер
Яншин Михаил
 
Не забывайте говорить Спасибо. Не уходите с раздачи!   
Торрент: Зарегистрирован [13 янв 2018, 23:34] Для скачивания .torrent
необходима регистрация
Или скачать с помощью
MediaGet
Статус:
Проверен
 
.torrent скачан: 0 раз
Хэш: 1a7c615766cebf303d819d26bd16e4ec0626823a
Размер: 33.46 ГБ (35 925 051 959 байт)
Стать Автором раздачи
 
 
Раздал: 0 байт
Скачал: 0 байт
Ратио: Inf.
Сообщения: 439785
Зарегистрирован: 17 апр 2014, 13:57


  • Похожие торренты
    Ответы
    Просмотры
    Последнее сообщение

Вернуться в Биографии. Личности и кумиры

Ресурс не предоставляет электронные версии произведений, а занимается лишь коллекционированием и каталогизацией ссылок, присылаемых и публикуемых на форуме нашими читателями. Если вы являетесь правообладателем какого-либо представленного материала и не желаете чтобы ссылка на него находилась в нашем каталоге, свяжитесь с нами и мы незамедлительно удалим её. Файлы для обмена на трекере предоставлены пользователями сайта, и администрация не несёт ответственности за их содержание. Просьба не заливать файлы, защищенные авторскими правами, а также файлы нелегального содержания!
cron