Уотергейт. Крушение Белого дома / Mark Felt: The Man Who Brought Down the White House (Питер Ландесман / Peter Landesman) [2017, США, триллер, драма, биография, история, BDRip-AVC] MVO

 
 Статистика раздачи 
Размер: 1.46 ГБ   |  Зарегистрирован: 13 янв 2018, 23:26   |   .torrent скачан: 0 раз
Сидеров: 1  [ 0 байт/сек ]     Личеров: 0  [ 0 байт/сек ]  
  

Уотергейт. Крушение Белого дома / Mark Felt: The Man Who Brought Down the White House (Питер Ландесман / Peter Landesman) [2017, США, триллер, драма, биография, история, BDRip-AVC] MVO

Сообщение Nakazhu » 13 янв 2018, 23:26


Уотергейт. Крушение Белого дома / Mark Felt: The Man Who Brought Down the White House

«Тайное всегда становится явным»


Страна: США
Жанр: триллер, драма, биография, история
Год выпуска: 2017
Продолжительность: 01:42:57
Перевод: Профессиональный (многоголосый закадровый) iTunes
Субтитры: нет
Оригинальная аудиодорожка: нет
Режиссер: Питер Ландесман / Peter Landesman
В ролях: Лиам Нисон, Дайан Лэйн, Мартон Чокаш, Тони Голдуин, Айк Баринхолц, Джош Лукас, Венди МакЛендон-Кови, Кейт Уолш, Брайан Д Арси Джеймс, Майка Монро
Описание: Фильм о главном звене самого громкого скандала ХХ века «Уотергейт», который привел к преждевременной отставке президента Ричарда Никсона. Личность человека, передававшего прессе обличительную информацию на главу государства, долгое время была окутана тайной и установлена лишь спустя 30 лет после его собственного признания. Шокирующая невероятная история, основанная на реальных событиях, о жизни блестящего и бескомпромиссного Заместителя Начальника ФБР Марка Фелта, который пожертвовал всем — своей семьей, своей карьерой и своей свободой, чтобы мир узнал правду.


Качество видео: BDRip-AVC / Mark.Felt.The.Man.Who.Brought.Down.the.White.House.2017.1080p.BluRay.REMUX.AVC.DTS-HD.MA.5.1-EPSiLON
Формат видео: MKV
Видео: MPEG-4 AVC, 960x480 (2.000), 23,976 fps, ~1640 kbps avg, 0.148 bit/pixel
Аудио: 48 kHz, AC3 Dolby Digital, 3/2 (L,C,R,l,r) + LFE ch, ~384 kbps avg
Код: Выделить всё
Код:
Код: Выделить всё
Complete name               : D:\Раздачи\Уотергейт. Крушение Белого дома (2017) BDRip-AVC_ivanes20031987.mkv
Format                      : Matroska
Format version              : Version 2
File size                   : 1.46 GiB
Duration                    : 1 h 42 min
Overall bit rate            : 2 025 kb/s
Encoded date                : UTC 2018-01-13 19:45:46
Writing application         : mkvmerge v4.4.0 ('Die Wiederkehr') сборка от Jan  3 2011 21:40:45
Writing library             : libebml v1.0.0 + libmatroska v1.0.0
Cover                       : Yes
Attachments                 : cover.jpg
Video
ID                          : 1
Format                      : AVC
Format/Info                 : Advanced Video Codec
Format profile              : High@L4.1
Format settings, CABAC      : Yes
Format settings, RefFrames  : 14 frames
Codec ID                    : V_MPEG4/ISO/AVC
Duration                    : 1 h 42 min
Bit rate                    : 1 640 kb/s
Width                       : 960 pixels
Height                      : 480 pixels
Display aspect ratio        : 2.000
Frame rate mode             : Constant
Frame rate                  : 23.976 (24000/1001) FPS
Color space                 : YUV
Chroma subsampling          : 4:2:0
Bit depth                   : 8 bits
Scan type                   : Progressive
Bits/(Pixel*Frame)          : 0.148
Stream size                 : 1.15 GiB (79%)
Writing library             : x264 core 152 r2851kMod ba24899
Encoding settings           : cabac=1 / ref=14 / deblock=1:-1:-1 / analyse=0x3:0x113 / me=umh / subme=10 / psy=1 / fade_compensate=0.00 / psy_rd=1.00:0.00 / mixed_ref=1 / me_range=32 / chroma_me=1 / trellis=2 / 8x8dct=1 / cqm=0 / deadzone=21,11 / fast_pskip=0 / chroma_qp_offset=-2 / threads=15 / lookahead_threads=3 / sliced_threads=0 / nr=0 / decimate=0 / interlaced=0 / bluray_compat=0 / constrained_intra=0 / bframes=14 / b_pyramid=2 / b_adapt=2 / b_bias=0 / direct=1 / weightb=1 / open_gop=0 / weightp=2 / keyint=240 / keyint_min=23 / scenecut=40 / intra_refresh=0 / rc_lookahead=90 / rc=2pass / mbtree=0 / bitrate=1640 / ratetol=1.0 / qcomp=0.60 / qpmin=0 / qpmax=69 / qpstep=4 / cplxblur=20.0 / qblur=0.5 / vbv_maxrate=50000 / vbv_bufsize=62500 / nal_hrd=none / filler=0 / ip_ratio=1.40 / pb_ratio=1.30 / aq=1:1.00
Default                     : Yes
Forced                      : No
Audio
ID                          : 2
Format                      : AC-3
Format/Info                 : Audio Coding 3
Format settings, Endianness : Big
Codec ID                    : A_AC3
Duration                    : 1 h 42 min
Bit rate mode               : Constant
Bit rate                    : 384 kb/s
Channel(s)                  : 6 channels
Channel positions           : Front: L C R, Side: L R, LFE
Sampling rate               : 48.0 kHz
Frame rate                  : 31.250 FPS (1536 SPF)
Bit depth                   : 16 bits
Compression mode            : Lossy
Stream size                 : 283 MiB (19%)
Title                       : iTunes
Language                    : Russian
Service kind                : Complete Main
Default                     : Yes
Forced                      : No

Код:
Код: Выделить всё
raw [info]: 960x480p 1:1 @ 24000/1001 fps (cfr)
x264 [info]: using SAR=1/1
x264 [info]: using cpu capabilities: MMX2 SSE2Fast SSSE3 SSE4.2
x264 [info]: profile High, level 4.1
x264 [info]: cabac=1 ref=14 deblock=1:-1:-1 analyse=0x3:0x113 me=umh subme=10 psy=1 fade_compensate=0.00 psy_rd=1.00:0.00 mixed_ref=1 me_range=32 chroma_me=1 trellis=2 8x8dct=1 cqm=0 deadzone=21,11 fast_pskip=0 chroma_qp_offset=-2 threads=15 lookahead_threads=3 sliced_threads=0 nr=0 decimate=0 interlaced=0 bluray_compat=0 constrained_intra=0 bframes=14 b_pyramid=2 b_adapt=2 b_bias=0 direct=1 weightb=1 open_gop=0 weightp=2 keyint=240 keyint_min=23 scenecut=40 intra_refresh=0 rc_lookahead=90 rc=2pass mbtree=0 bitrate=1640 ratetol=1.0 qcomp=0.60 qpmin=0 qpmax=69 qpstep=4 cplxblur=20.0 qblur=0.5 vbv_maxrate=50000 vbv_bufsize=62500 nal_hrd=none filler=0 ip_ratio=1.40 pb_ratio=1.30 aq=1:1.00
frames     fps     kb/s    elapsed   remain     size    est.size
x264 [info]: frame I:1255  Avg QP:11.09  size: 68780
x264 [info]: frame P:27720 Avg QP:13.41  size: 21310
x264 [info]: frame B:119129 Avg QP:15.23  size:  4945
x264 [info]: consecutive B-frames:  1.4%  1.6%  6.3% 15.8% 12.9% 25.6%  9.4% 18.4%  3.0%  1.0%  0.8%  3.1%  0.5%  0.0%  0.0%
x264 [info]: mb I  I16..4:  7.5% 79.6% 12.9%
x264 [info]: mb P  I16..4:  2.1%  8.1%  0.7%  P16..4: 34.0% 28.9% 19.1%  0.0%  0.0%    skip: 7.1%
x264 [info]: mb B  I16..4:  0.0%  0.2%  0.0%  B16..8: 34.0% 15.1%  4.7%  direct: 3.8%  skip:42.1%  L0:46.2% L1:45.3% BI: 8.5%
x264 [info]: 8x8 transform intra:75.8% inter:43.4%
x264 [info]: coded y,uvDC,uvAC intra: 89.9% 71.9% 61.8% inter: 18.5% 11.3% 7.0%
x264 [info]: i16 v,h,dc,p: 64% 14% 10% 12%
x264 [info]: i8 v,h,dc,ddl,ddr,vr,hd,vl,hu: 12% 10% 17%  8% 10% 11% 10% 10% 11%
x264 [info]: i4 v,h,dc,ddl,ddr,vr,hd,vl,hu: 12% 10%  5% 10% 14% 14% 12% 11% 12%
x264 [info]: i8c dc,h,v,p: 59% 17% 15%  9%
x264 [info]: Weighted P-Frames: Y:2.5% UV:0.9%
x264 [info]: ref P L0: 46.2%  5.4% 17.9%  6.7%  6.2%  4.0%  4.0%  1.8%  1.9%  1.3%  1.4%  1.0%  1.2%  0.9%  0.0%  0.0%
x264 [info]: ref B L0: 68.9% 12.6%  6.1%  3.3%  2.3%  2.1%  1.5%  0.9%  0.8%  0.6%  0.5%  0.3%  0.1%
x264 [info]: ref B L1: 94.2%  5.8%
x264 [info]: kb/s:1639.83

 
Не забывайте говорить Спасибо. Не уходите с раздачи!   
Торрент: Зарегистрирован [13 янв 2018, 23:26] Для скачивания .torrent
необходима регистрация
Или скачать с помощью
MediaGet
Статус:
Проверен
 
.torrent скачан: 0 раз
Хэш: 82f6cc5d88ca97ddd5461cda3334db815c9dddc6
Размер: 1.46 ГБ (1 563 769 011 байт)
Стать Автором раздачи
 
 
Раздал: 0 байт
Скачал: 0 байт
Ратио: Inf.
Сообщения: 487085
Зарегистрирован: 17 апр 2014, 13:57


  • Похожие торренты
    Ответы
    Просмотры
    Последнее сообщение

Вернуться в Зарубежное кино

Ресурс не предоставляет электронные версии произведений, а занимается лишь коллекционированием и каталогизацией ссылок, присылаемых и публикуемых на форуме нашими читателями. Если вы являетесь правообладателем какого-либо представленного материала и не желаете чтобы ссылка на него находилась в нашем каталоге, свяжитесь с нами и мы незамедлительно удалим её. Файлы для обмена на трекере предоставлены пользователями сайта, и администрация не несёт ответственности за их содержание. Просьба не заливать файлы, защищенные авторскими правами, а также файлы нелегального содержания!
cron