Следствие вели... с Леонидом Каневским 2011 (13 выпускoв) (Александр Ярославцев) [2011, Документальный цикл, криминал, HDTV 1080i]

 
 Статистика раздачи 
Размер: 36.21 ГБ   |  Зарегистрирован: 13 янв 2018, 23:04   |   .torrent скачан: 0 раз
Сидеров: 1  [ 0 байт/сек ]     Личеров: 0  [ 0 байт/сек ]  
  

Следствие вели... с Леонидом Каневским 2011 (13 выпускoв) (Александр Ярославцев) [2011, Документальный цикл, криминал, HDTV 1080i]

Сообщение Nakazhu » 13 янв 2018, 23:04

Следствие вели... с Леонидом Каневским 2011
Год выпуска: 2011
Страна: Россия
Студия: Версия
Жанр: Документальный цикл, криминал
Продолжительность: 00:39:41
Перевод: Не требуется
Русские субтитры: нет
Режиссер: Александр Ярославцев
Описание: Эти уголовные дела гремели на весь Советский Союз. По ним были написаны романы и сняты художественные фильмы. Их фигуранты — миллионеры эпохи социализма, хитроумные воры, профессиональные грабители и валютчики. Они бросили вызов советскому обществу. Вызов приняли лучшие сыщики страны. В их распоряжении не было компьютеров, сотовой связи и бойцов ОМОНа. Но это не мешало вершиться правосудию. Банда «Черная кошка», дело банды советских гангстеров конца 60-х годов, прозванных «Фантомасами», увлекательная история налетчика Леонида Пантелеева, «свободного художника-грабителя» — эти случаи вошли в историю отечественной криминалистики.
13.01.2018 _ добавил: Выпуск 188 Заморская невеста (25.12.2011)
Выпуск 188 Заморская невеста (25.12.2011)
Выпуск 187 Синяя роза (18.12.2011)
Выпуск 186 Дело особой важности (11.12.2011)
Выпуск 183 Украденная дочь (13.11.2011)
Выпуск 182 Сашка-Одесса (23.10.2011)
Выпуск 181 Двое в лодке, не считая убийцы (16.10.2011)
Выпуск 179 Чёрный сентябрь (01.10.2011)
Выпуск 177 Пуля для маэстро (18.09.2011)
Выпуск 176 Кукла для маньяка (11.09.2011)
Выпуск 175 Ведьма (04.09.2011)
Выпуск 171 Кошмар на Рижском взморье (03.06.2011)
Выпуск 170 Ножом и вилкой (27.05.2011)
Выпуск 168 Абсолютное зло (13.05.2011)
Сэмпл: http://multi-up.com/1165850
Тип релиза: HDTV 1080i
Контейнер: TS
Видео: AVC, 1920x1080, (16:9), 25 fps, 10.2 Mb/s
Аудио: MP2, 48 kHz; 2 ch; 192 kbps
Код: Выделить всё
General
ID                                       : 1 (0x1)
Complete name                            : E:\Следствие вели... с Леонидом Каневским (2011)\Выпуск 175 Ведьма (04.09.2011).ts
Format                                   : MPEG-TS
File size                                : 3.03 GiB
Duration                                 : 39 min 41 s
Overall bit rate mode                    : Variable
Overall bit rate                         : 10.9 Mb/s
Video
ID                                       : 201 (0xC9)
Menu ID                                  : 2201 (0x899)
Format                                   : AVC
Format/Info                              : Advanced Video Codec
Format profile                           : High@L4
Format settings, CABAC                   : Yes
Format settings, RefFrames               : 4 frames
Codec ID                                 : 27
Duration                                 : 39 min 41 s
Bit rate                                 : 10.2 Mb/s
Width                                    : 1 920 pixels
Height                                   : 1 080 pixels
Display aspect ratio                     : 16:9
Frame rate                               : 25.000 FPS
Standard                                 : Component
Color space                              : YUV
Chroma subsampling                       : 4:2:0
Bit depth                                : 8 bits
Scan type                                : Interlaced
Scan type, store method                  : Separated fields
Scan order                               : Top Field First
Bits/(Pixel*Frame)                       : 0.197
Stream size                              : 2.83 GiB (93%)
Color range                              : Limited
Color primaries                          : BT.709
Transfer characteristics                 : BT.709
Matrix coefficients                      : BT.709
Audio
ID                                       : 301 (0x12D)
Menu ID                                  : 2201 (0x899)
Format                                   : MPEG Audio
Format version                           : Version 1
Format profile                           : Layer 2
Codec ID                                 : 3
Duration                                 : 39 min 41 s
Bit rate mode                            : Constant
Bit rate                                 : 192 kb/s
Channel(s)                               : 2 channels
Sampling rate                            : 48.0 kHz
Compression mode                         : Lossy
Stream size                              : 54.5 MiB (2%)
Language                                 : Russian
 
Не забывайте говорить Спасибо. Не уходите с раздачи!   
Торрент: Зарегистрирован [13 янв 2018, 23:04] Скачать торрент
Скачать торрент
[ Размер 92.24 КБ / Просмотров 12 ]
Статус:
Проверен
 
.torrent скачан: 0 раз
Хэш: 2e9dafccc8b6e579a027f6ba88885cc73e1ea962
Размер: 36.21 ГБ (38 881 177 888 байт)
Стать Автором раздачи
 
 
Раздал: 0 байт
Скачал: 0 байт
Ратио: Inf.
Сообщения: 487468
Зарегистрирован: 17 апр 2014, 13:57


  • Похожие торренты
    Ответы
    Просмотры
    Последнее сообщение

Вернуться в Документальные (HD Video)

Ресурс не предоставляет электронные версии произведений, а занимается лишь коллекционированием и каталогизацией ссылок, присылаемых и публикуемых на форуме нашими читателями. Если вы являетесь правообладателем какого-либо представленного материала и не желаете чтобы ссылка на него находилась в нашем каталоге, свяжитесь с нами и мы незамедлительно удалим её. Файлы для обмена на трекере предоставлены пользователями сайта, и администрация не несёт ответственности за их содержание. Просьба не заливать файлы, защищенные авторскими правами, а также файлы нелегального содержания!
cron