Смешарики. Новые приключения / Сезон: Серии: 1-57 из 69 (Денис Чернов) [2012-2014, Россия, комедия, приключения, семейный, DVDRemux]

 
 Статистика раздачи 
Размер: 20.09 ГБ   |  Зарегистрирован: 13 янв 2018, 23:03   |   .torrent скачан: 0 раз
Сидеров: 1  [ 0 байт/сек ]     Личеров: 0  [ 0 байт/сек ]  
  

Смешарики. Новые приключения / Сезон: Серии: 1-57 из 69 (Денис Чернов) [2012-2014, Россия, комедия, приключения, семейный, DVDRemux]

Сообщение Nakazhu » 13 янв 2018, 23:03

Смешарики. Новые приключения / Смешарики
Страна: Россия
Жанр: комедия, приключения, семейный
Продолжительность серии: ~10 мин.
Год выпуска: 2012-2014
Перевод: Отсутствует
Русские субтитры: нет
Режиссёр: Денис Чернов
Роли озвучивали: Антон Виноградов, Владимир Постников, Вадим Бочанов, Светлана Письмиченко, Ксения Бржезовская, Михаил Черняк, Сергей Мардарь
Описание: Смешарики — стилизованные круглые зверушки. Каждый из девяти смешариков обладает своим индивидуальным характером и областью интересов, среди них нет отрицательных персонажей. Сюжеты построены на неожиданных ситуациях, с которыми сталкиваются мультгерои в процессе общения и игр. Часто эти ситуации, особенно возникающие в ходе общения, воспроизводят реальные проблемы, с которыми может столкнуться ребёнок в своей повседневной жизни. Смешарики разделены на 2 возрастные категории: детей (Крош, Ёжик, Нюша, Бараш) и взрослых(Копатыч, Совунья, Лосяш, Кар-Карыч, Пин). Большое внимание создатели сериала уделили юмору. Шарообразность персонажей, по мнению авторов, подчёркивают их доброжелательность и позволяет легко нарисовать их даже ребёнку.
Доп. информация: Спасибо Сме_ша_рик за исходник
Уже вышли 12 новых серий, но они еще выпущены на DVD поэтому - ждем появления DVD.
Качество: DVDRemux
Формат: MKV
Видео: MPEG2, 720x576, (16:9) 25.000 fps, ≈7000 kbps
Аудио: AC3 Dolby Digital 2.0, 48 KHz, 224 kbps
Субтитры: отсутствуют
Код: Выделить всё
Общее
Уникальный идентификатор                 : 191905876660668609024651468622292423387 (0x905FBA3946B9A319611FF9C42E0D92DB)
Полное имя                               : D:\Фильмы\Smeshariki.Novye.priklucheniya.DVDRemux\10.Я завтрашний, я вчерашний.mkv
Формат                                   : Matroska
Версия формата                           : Version 2
Размер файла                             : 241 Мбайт
Продолжительность                        : 6 м. 29 с.
Режим общего битрейта                    : Переменный
Общий поток                              : 5188 Кбит/сек
Дата кодирования                         : UTC 2017-12-26 17:37:16
Программа кодирования                    : MakeMKV v1.10.4 win(x64-release)
Библиотека кодирования                   : libmakemkv v1.10.4 (1.3.3/1.4.4) win(x64-release)
Носитель оригинала                       : DVD-Video
Видео
Идентификатор                            : 1
ID in the original source medium         : 224 (0xE0)
Формат                                   : MPEG Video
Версия формата                           : Version 2
Профиль формата                          : Main@Main
Параметр BVOP формата                    : Да
Параметр матрицы формата                 : По умолчанию
Параметр GOP формата                     : M=3, N=12
Структура изображения                    : Frame
Идентификатор кодека                     : V_MPEG2
Идентификатор кодека/Информация          : MPEG 1 or 2 Video
Продолжительность                        : 6 м. 29 с.
Вид битрейта                             : Переменный
Битрейт                                  : 4959 Кбит/сек
Максимальный битрейт                     : 7000 Кбит/сек
Ширина                                   : 720 пикселей
Высота                                   : 576 пикселей
Соотношение сторон                       : 16:9
Режим частоты кадров                     : Постоянный
Частота кадров                           : 25,000 кадров/сек
Стандарт вещания                         : PAL
Цветовое пространство                    : YUV
Субдискретизация насыщенности            : 4:2:0
Битовая глубина                          : 8 бит
Тип развёртки                            : Чересстрочная
Порядок развёртки                        : Нижнее поле первое
Метод сжатия                             : С потерями
Бит/(Пиксели*Кадры)                      : 0.478
Временной код первого кадра              : 00:00:00:00
Оригинал временного кода                 : Group of pictures header
GOP, открыто/закрыто                     : Закрыто
Размер потока                            : 230 Мбайт (96%)
Язык                                     : English
Default                                  : Нет
Forced                                   : Нет
Аудио
Идентификатор                            : 2
ID in the original source medium         : 189 (0xBD)-128 (0x80)
Формат                                   : AC-3
Формат/Информация                        : Audio Coding 3
Расширение режима                        : CM (complete main)
Параметр Endianness формата              : Big
Идентификатор кодека                     : A_AC3
Продолжительность                        : 6 м. 29 с.
Вид битрейта                             : Постоянный
Битрейт                                  : 224 Кбит/сек
Каналы                                   : 2 канала
Расположение каналов                     : Front: L R
Частота                                  : 48,0 КГц
Частота кадров                           : 31,250 кадров/сек (1536 spf)
Битовая глубина                          : 16 бит
Метод сжатия                             : С потерями
Размер потока                            : 10,4 Мбайт (4%)
Заголовок                                : Stereo
Язык                                     : English
Default                                  : Да
Forced                                   : Нет
Меню
00:00:00.080                             : en:Chapter 01
00:00:19.280                             : en:Chapter 02
Предыдущие и альтернативные раздачи
 
Не забывайте говорить Спасибо. Не уходите с раздачи!   
Торрент: Зарегистрирован [13 янв 2018, 23:03] Для скачивания .torrent
необходима регистрация
Или скачать с помощью
MediaGet
Статус:
Проверен
 
.torrent скачан: 0 раз
Хэш: 9879476c82066d4587c505169afa37b5f94aafc9
Размер: 20.09 ГБ (21 576 669 178 байт)
Стать Автором раздачи
 
 
Раздал: 0 байт
Скачал: 0 байт
Ратио: Inf.
Сообщения: 487468
Зарегистрирован: 17 апр 2014, 13:57


  • Похожие торренты
    Ответы
    Просмотры
    Последнее сообщение

Вернуться в Мультсериалы

Ресурс не предоставляет электронные версии произведений, а занимается лишь коллекционированием и каталогизацией ссылок, присылаемых и публикуемых на форуме нашими читателями. Если вы являетесь правообладателем какого-либо представленного материала и не желаете чтобы ссылка на него находилась в нашем каталоге, свяжитесь с нами и мы незамедлительно удалим её. Файлы для обмена на трекере предоставлены пользователями сайта, и администрация не несёт ответственности за их содержание. Просьба не заливать файлы, защищенные авторскими правами, а также файлы нелегального содержания!
cron