Сегодня вечером. Памяти Эльдара Рязанова. Выпуск от 18.11.2017 [2017, Ток-шоу, WEBRip]

 
 Статистика раздачи 
Размер: 1.66 ГБ   |  Зарегистрирован: 13 янв 2018, 21:49   |   .torrent скачан: 0 раз
Сидеров: 1  [ 0 байт/сек ]     Личеров: 0  [ 0 байт/сек ]  
  

Сегодня вечером. Памяти Эльдара Рязанова. Выпуск от 18.11.2017 [2017, Ток-шоу, WEBRip]

Сообщение Nakazhu » 13 янв 2018, 21:49

Сегодня вечером. Памяти Эльдара Рязанова. Выпуск от 18.11.2017
Дата/Год выпуска: 2017
Страна: Россия
Жанр: Ток-шоу
Продолжительность: 02:18:22
Перевод: Отсутствует
Телеканал: 1 канал
Описание: 18 ноября легендарному режиссеру, фильмы которого любит вся страна, Эльдару Александровичу Рязанову могло бы исполниться 90 лет. В день его юбилея в студии собрались его родственники, артисты, которые обязаны ему карьерой, друзья и коллеги: Ольга Волкова, Роман Карцев, Валентин Гафт, Лариса Голубкина, Валентина Талызина и другие. Они вместе вспомнят жизнь, творчество и моменты со съемок любимых фильмов этого замечательного человека.
Доп. информация: Выпуск от 18.11.2017
качество: WEBRip
формат: MP4
Видео: h.264, 1280x720p, 16:9, 1 587 Kbps, 25.000 fps
Аудио: AAC, 126 Kbps, 44.1 KHz, stereo
Код: Выделить всё
General
Complete name                            : D:\Downloads\мои-торренты\segodnya_vecherom_pamyati_eldara_ryazanova_18-11-2017.mp4
Format                                   : MPEG-4
Format profile                           : Base Media / Version 2
Codec ID                                 : mp42
File size                                : 1.66 GiB
Duration                                 : 2h 18mn
Overall bit rate mode                    : Variable
Overall bit rate                         : 1 716 Kbps
Encoded date                             : UTC 2017-11-19 00:07:55
Tagged date                              : UTC 2017-11-19 00:07:55
gsst                                     : 0
gstd                                     : 8302898
Video
ID                                       : 1
Format                                   : AVC
Format/Info                              : Advanced Video Codec
Format profile                           : Main@L3.1
Format settings, CABAC                   : Yes
Format settings, ReFrames                : 3 frames
Codec ID                                 : avc1
Codec ID/Info                            : Advanced Video Coding
Duration                                 : 2h 18mn
Bit rate                                 : 1 587 Kbps
Width                                    : 1 280 pixels
Height                                   : 720 pixels
Display aspect ratio                     : 16:9
Frame rate mode                          : Constant
Frame rate                               : 25.000 fps
Color space                              : YUV
Chroma subsampling                       : 4:2:0
Bit depth                                : 8 bits
Scan type                                : Progressive
Bits/(Pixel*Frame)                       : 0.069
Stream size                              : 1.53 GiB (92%)
Title                                    : ISO Media file produced by Google Inc. Created on: 11/18/2017.
Encoded date                             : UTC 2017-11-19 00:07:55
Tagged date                              : UTC 2017-11-19 00:07:55
Color primaries                          : BT.709
Transfer characteristics                 : BT.709
Matrix coefficients                      : BT.709
Audio
ID                                       : 2
Format                                   : AAC
Format/Info                              : Advanced Audio Codec
Format profile                           : LC
Codec ID                                 : 40
Duration                                 : 2h 18mn
Bit rate mode                            : Variable
Bit rate                                 : 126 Kbps
Channel(s)                               : 2 channels
Channel positions                        : Front: L R
Sampling rate                            : 44.1 KHz
Compression mode                         : Lossy
Stream size                              : 124 MiB (7%)
Title                                    : ISO Media file produced by Google Inc. Created on: 11/18/2017.
Encoded date                             : UTC 2017-11-19 00:07:55
Tagged date                              : UTC 2017-11-19 00:07:55
 
Не забывайте говорить Спасибо. Не уходите с раздачи!   
Торрент: Зарегистрирован [13 янв 2018, 21:49] Для скачивания .torrent
необходима регистрация
Или скачать с помощью
MediaGet
Статус:
Проверен
 
.torrent скачан: 0 раз
Хэш: 1a35429d1e580905cc3c8b0efc071fa50e48c619
Размер: 1.66 ГБ (1 781 302 255 байт)
Стать Автором раздачи
 
 
Раздал: 0 байт
Скачал: 0 байт
Ратио: Inf.
Сообщения: 380173
Зарегистрирован: 17 апр 2014, 13:57


  • Похожие торренты
    Ответы
    Просмотры
    Последнее сообщение

Вернуться в Документальные фильмы и телепередачи

Ресурс не предоставляет электронные версии произведений, а занимается лишь коллекционированием и каталогизацией ссылок, присылаемых и публикуемых на форуме нашими читателями. Если вы являетесь правообладателем какого-либо представленного материала и не желаете чтобы ссылка на него находилась в нашем каталоге, свяжитесь с нами и мы незамедлительно удалим её. Файлы для обмена на трекере предоставлены пользователями сайта, и администрация не несёт ответственности за их содержание. Просьба не заливать файлы, защищенные авторскими правами, а также файлы нелегального содержания!
cron