Сегодня вечером. Комедии Леонида Гайдая. Выпуск от 30.12.2017 [2017, Ток-шоу, WEBRip]

 
 Статистика раздачи 
Размер: 1.33 ГБ   |  Зарегистрирован: 13 янв 2018, 21:13   |   .torrent скачан: 0 раз
Сидеров: 1  [ 0 байт/сек ]     Личеров: 0  [ 0 байт/сек ]  
  

Сегодня вечером. Комедии Леонида Гайдая. Выпуск от 30.12.2017 [2017, Ток-шоу, WEBRip]

Сообщение Nakazhu » 13 янв 2018, 21:14

Сегодня вечером. Комедии Леонида Гайдая. Выпуск от 30.12.2017
Дата/Год выпуска: 2017
Страна: Россия
Жанр: Ток-шоу
Продолжительность: 02:18:26
Перевод: Отсутствует
Телеканал: 1 канал
Описание: "Иван Васильевич меняет профессию", "Бриллиантовая рука", "Кавказская пленница" – фильмы Леонида Гайдая знают и любят миллионы россиян. В студии "Сегодня вечером" собрались друзья, близкие и коллеги выдающегося режиссера, чтобы вспомнить, как создавались эти картины.
Доп. информация: Выпуск от 30.12.2017
качество: WEBRip
формат: MP4
Видео: h.264, 1280x720p, 16:9, 1 244 Kbps, 25.000 fps
Аудио: AAC, 126 Kbps, 44.1 KHz, stereo
Код: Выделить всё
General
Complete name                            : D:\Downloads\мои-торренты\segodnya_vecherom_komedii_leonida_gaydaya_30-12-2017.mp4
Format                                   : MPEG-4
Format profile                           : Base Media / Version 2
Codec ID                                 : mp42
File size                                : 1.33 GiB
Duration                                 : 2h 18mn
Overall bit rate mode                    : Variable
Overall bit rate                         : 1 373 Kbps
Encoded date                             : UTC 2018-01-02 18:05:00
Tagged date                              : UTC 2018-01-02 18:05:00
gsst                                     : 0
gstd                                     : 8306079
Video
ID                                       : 1
Format                                   : AVC
Format/Info                              : Advanced Video Codec
Format profile                           : Main@L3.1
Format settings, CABAC                   : Yes
Format settings, ReFrames                : 3 frames
Codec ID                                 : avc1
Codec ID/Info                            : Advanced Video Coding
Duration                                 : 2h 18mn
Bit rate                                 : 1 244 Kbps
Width                                    : 1 280 pixels
Height                                   : 720 pixels
Display aspect ratio                     : 16:9
Frame rate mode                          : Constant
Frame rate                               : 25.000 fps
Color space                              : YUV
Chroma subsampling                       : 4:2:0
Bit depth                                : 8 bits
Scan type                                : Progressive
Bits/(Pixel*Frame)                       : 0.054
Stream size                              : 1.20 GiB (91%)
Title                                    : ISO Media file produced by Google Inc. Created on: 01/02/2018.
Encoded date                             : UTC 2018-01-02 18:05:00
Tagged date                              : UTC 2018-01-02 18:05:00
Color primaries                          : BT.709
Transfer characteristics                 : BT.709
Matrix coefficients                      : BT.709
Audio
ID                                       : 2
Format                                   : AAC
Format/Info                              : Advanced Audio Codec
Format profile                           : LC
Codec ID                                 : 40
Duration                                 : 2h 18mn
Bit rate mode                            : Variable
Bit rate                                 : 126 Kbps
Channel(s)                               : 2 channels
Channel positions                        : Front: L R
Sampling rate                            : 44.1 KHz
Compression mode                         : Lossy
Stream size                              : 124 MiB (9%)
Title                                    : ISO Media file produced by Google Inc. Created on: 01/02/2018.
Encoded date                             : UTC 2018-01-02 18:05:00
Tagged date                              : UTC 2018-01-02 18:05:00
 
Не забывайте говорить Спасибо. Не уходите с раздачи!   
Торрент: Зарегистрирован [13 янв 2018, 21:13] Скачать торрент
Скачать торрент
[ Размер 13.75 КБ / Просмотров 92 ]
Статус:
Проверен
 
.torrent скачан: 0 раз
Хэш: 7c0e4116e64977392c1605080c685d31ee04424a
Размер: 1.33 ГБ (1 425 767 354 байт)
Стать Автором раздачи
 
 
Раздал: 0 байт
Скачал: 0 байт
Ратио: Inf.
Сообщения: 487468
Зарегистрирован: 17 апр 2014, 13:57


  • Похожие торренты
    Ответы
    Просмотры
    Последнее сообщение

Вернуться в Документальные фильмы и телепередачи

Ресурс не предоставляет электронные версии произведений, а занимается лишь коллекционированием и каталогизацией ссылок, присылаемых и публикуемых на форуме нашими читателями. Если вы являетесь правообладателем какого-либо представленного материала и не желаете чтобы ссылка на него находилась в нашем каталоге, свяжитесь с нами и мы незамедлительно удалим её. Файлы для обмена на трекере предоставлены пользователями сайта, и администрация не несёт ответственности за их содержание. Просьба не заливать файлы, защищенные авторскими правами, а также файлы нелегального содержания!
cron