Городские джунгли / Urban Jungle / Серии: 1-3 из 3 (Катрин Йеллоз / Catherine Yelloz) [2014, Документальный, природа, фауна, HDTVRip] National Geographic

 
 Статистика раздачи 
Размер: 2.2 ГБ   |  Зарегистрирован: 13 янв 2018, 20:50   |   .torrent скачан: 0 раз
Сидеров: 1  [ 0 байт/сек ]     Личеров: 0  [ 0 байт/сек ]  
  

Городские джунгли / Urban Jungle / Серии: 1-3 из 3 (Катрин Йеллоз / Catherine Yelloz) [2014, Документальный, природа, фауна, HDTVRip] National Geographic

Сообщение Nakazhu » 13 янв 2018, 20:53

Городские джунгли / Urban Jungle
Страна: Великобритания
Студия: National Geographic
Жанр: Документальный, природа, фауна
Год выпуска: 2014
Продолжительность: 3 x ~ 00:44:02
Перевод: Профессиональный (дублированный) - Студия "Велес"
Субтитры: нет
Оригинальная аудиодорожка: Английский
Режиссёр: Катрин Йеллоз / Catherine Yelloz
Описание: Они являются темой бесчисленных выпусков новостей. Ужасные истории из заголовков. Дикие животные, охотящиеся на улицах наших городов. Но их истории не были рассказаны целиком — до сегодняшнего дня. В передаче Городские джунгли специалист по отслеживанию больших кошек Бун Смит возьмёт нас с собой в душераздирающее путешествие в места, которые мы считали своими собственными, но теперь ставшие дикими. Он отправляется в глубину самых населённых городов планеты, чтобы показать скрытый мир, в котором пересекаются пути хищников и добычи: прямо за окном, над крышами небоскрёбов, под нашими ногами. Мы отправимся в небольшие города по всей планете, где задние дворы стали полем боя, а спальни — местом гнездовья. Также Бун Смит поедет на край земли, в отдалённые поселения, где дикая природа пытается отвоевать свою территорию. Эта передача прольёт свет на мир, где все виды — люди и животные — отстаивают своё право на выживание, и где ставки высоки как никогда. По всей планете дикая природа начала своё восстание, и она уже у ваших дверей.
Доп. информация:
Автор релиза -
Источник для рипа - HDTV 1080i TS - моя запись с канала Nat Geo Wild HD - http://rutracker.org/forum/viewtopic.php?t=5505969

Сэмпл: https://yadi.sk/i/IKjAgpKa3RReZb
Рекламы нет!
Качество видео: HDTVRip
Формат видео: AVI
Видео: XviD, 720x400 (16:9), 25.000 fps, ~1983 kbps, 0.275 bit/pixel
Аудио 1: Русский AC3, 48000 Гц, 2ch, 192 kbps
Аудио 2: Английский AC3, 48000 Гц, 2ch, 192 kbps
Код: Выделить всё
Общее
Полное имя                               : D:\Urban.Jungle.2014.HDTVRip-ylnian\1.avi
Формат                                   : AVI
Формат/Информация                        : Audio Video Interleave
Размер файла                             : 752 Мбайт
Продолжительность                        : 44 м. 3 с.
Общий поток                              : 2386 Кбит/сек
Программа кодирования                    : VirtualDubMod 1.5.10.2 (build 2540/release)
Библиотека кодирования                   : VirtualDubMod build 2540/release
Видео
Идентификатор                            : 0
Формат                                   : MPEG-4 Visual
Профиль формата                          : Advanced Simple@L5
Настройки формата                        : BVOP1
Параметр BVOP формата                    : 1
Параметр QPel формата                    : Нет
Параметр GMC формата                     : Без точки перехода
Параметр матрицы формата                 : Default (MPEG)
Идентификатор кодека                     : XVID
Идентификатор кодека/Подсказка           : XviD
Продолжительность                        : 44 м. 3 с.
Битрейт                                  : 1987 Кбит/сек
Ширина                                   : 720 пикселей
Высота                                   : 400 пикселей
Соотношение сторон                       : 16:9
Частота кадров                           : 25,000 кадров/сек
Цветовое пространство                    : YUV
Субдискретизация насыщенности            : 4:2:0
Битовая глубина                          : 8 бит
Тип развёртки                            : Прогрессивная
Метод сжатия                             : С потерями
Бит/(Пиксели*Кадры)                      : 0.276
Размер потока                            : 626 Мбайт (83%)
Библиотека кодирования                   : XviD 67
Аудио #1
Идентификатор                            : 1
Формат                                   : AC-3
Формат/Информация                        : Audio Coding 3
Идентификатор кодека                     : 2000
Продолжительность                        : 44 м. 3 с.
Вид битрейта                             : Постоянный
Битрейт                                  : 192 Кбит/сек
Каналы                                   : 2 канала
Расположение каналов                     : Front: L R
Частота                                  : 48,0 КГц
Частота кадров                           : 31,250 кадров/сек (1536 SPF)
Битовая глубина                          : 16 бит
Метод сжатия                             : С потерями
Размер потока                            : 60,5 Мбайт (8%)
Выравнивание                             : Разделение по промежуткам
Продолжительность промежутка             : 40  мс. (1,00 видеокадр)
Время предзагрузки промежутка            : 500  мс.
Заголовок                                : RUS
ServiceKind/String                       : Complete Main
Аудио #2
Идентификатор                            : 2
Формат                                   : AC-3
Формат/Информация                        : Audio Coding 3
Идентификатор кодека                     : 2000
Продолжительность                        : 44 м. 3 с.
Вид битрейта                             : Постоянный
Битрейт                                  : 192 Кбит/сек
Каналы                                   : 2 канала
Расположение каналов                     : Front: L R
Частота                                  : 48,0 КГц
Частота кадров                           : 31,250 кадров/сек (1536 SPF)
Битовая глубина                          : 16 бит
Метод сжатия                             : С потерями
Размер потока                            : 60,5 Мбайт (8%)
Выравнивание                             : Разделение по промежуткам
Продолжительность промежутка             : 40  мс. (1,00 видеокадр)
Время предзагрузки промежутка            : 500  мс.
Заголовок                                : ENG
ServiceKind/String                       : Complete Main
Общее
Полное имя                               : D:\Urban.Jungle.2014.HDTVRip-ylnian\2.avi
Формат                                   : AVI
Формат/Информация                        : Audio Video Interleave
Размер файла                             : 750 Мбайт
Продолжительность                        : 44 м. 3 с.
Общий поток                              : 2380 Кбит/сек
Программа кодирования                    : VirtualDubMod 1.5.10.2 (build 2540/release)
Библиотека кодирования                   : VirtualDubMod build 2540/release
Видео
Идентификатор                            : 0
Формат                                   : MPEG-4 Visual
Профиль формата                          : Advanced Simple@L5
Настройки формата                        : BVOP1
Параметр BVOP формата                    : 1
Параметр QPel формата                    : Нет
Параметр GMC формата                     : Без точки перехода
Параметр матрицы формата                 : Default (MPEG)
Идентификатор кодека                     : XVID
Идентификатор кодека/Подсказка           : XviD
Продолжительность                        : 44 м. 3 с.
Битрейт                                  : 1981 Кбит/сек
Ширина                                   : 720 пикселей
Высота                                   : 400 пикселей
Соотношение сторон                       : 16:9
Частота кадров                           : 25,000 кадров/сек
Цветовое пространство                    : YUV
Субдискретизация насыщенности            : 4:2:0
Битовая глубина                          : 8 бит
Тип развёртки                            : Прогрессивная
Метод сжатия                             : С потерями
Бит/(Пиксели*Кадры)                      : 0.275
Размер потока                            : 624 Мбайт (83%)
Библиотека кодирования                   : XviD 67
Аудио #1
Идентификатор                            : 1
Формат                                   : AC-3
Формат/Информация                        : Audio Coding 3
Идентификатор кодека                     : 2000
Продолжительность                        : 44 м. 3 с.
Вид битрейта                             : Постоянный
Битрейт                                  : 192 Кбит/сек
Каналы                                   : 2 канала
Расположение каналов                     : Front: L R
Частота                                  : 48,0 КГц
Частота кадров                           : 31,250 кадров/сек (1536 SPF)
Битовая глубина                          : 16 бит
Метод сжатия                             : С потерями
Размер потока                            : 60,5 Мбайт (8%)
Выравнивание                             : Разделение по промежуткам
Продолжительность промежутка             : 40  мс. (1,00 видеокадр)
Время предзагрузки промежутка            : 500  мс.
Заголовок                                : RUS
ServiceKind/String                       : Complete Main
Аудио #2
Идентификатор                            : 2
Формат                                   : AC-3
Формат/Информация                        : Audio Coding 3
Идентификатор кодека                     : 2000
Продолжительность                        : 44 м. 3 с.
Вид битрейта                             : Постоянный
Битрейт                                  : 192 Кбит/сек
Каналы                                   : 2 канала
Расположение каналов                     : Front: L R
Частота                                  : 48,0 КГц
Частота кадров                           : 31,250 кадров/сек (1536 SPF)
Битовая глубина                          : 16 бит
Метод сжатия                             : С потерями
Размер потока                            : 60,5 Мбайт (8%)
Выравнивание                             : Разделение по промежуткам
Продолжительность промежутка             : 40  мс. (1,00 видеокадр)
Время предзагрузки промежутка            : 500  мс.
Заголовок                                : ENG
ServiceKind/String                       : Complete Main
Общее
Полное имя                               : D:\Urban.Jungle.2014.HDTVRip-ylnian\3.avi
Формат                                   : AVI
Формат/Информация                        : Audio Video Interleave
Размер файла                             : 749 Мбайт
Продолжительность                        : 43 м. 59 с.
Общий поток                              : 2380 Кбит/сек
Программа кодирования                    : VirtualDubMod 1.5.10.2 (build 2540/release)
Библиотека кодирования                   : VirtualDubMod build 2540/release
Видео
Идентификатор                            : 0
Формат                                   : MPEG-4 Visual
Профиль формата                          : Advanced Simple@L5
Настройки формата                        : BVOP1
Параметр BVOP формата                    : 1
Параметр QPel формата                    : Нет
Параметр GMC формата                     : Без точки перехода
Параметр матрицы формата                 : Default (MPEG)
Идентификатор кодека                     : XVID
Идентификатор кодека/Подсказка           : XviD
Продолжительность                        : 43 м. 59 с.
Битрейт                                  : 1982 Кбит/сек
Ширина                                   : 720 пикселей
Высота                                   : 400 пикселей
Соотношение сторон                       : 16:9
Частота кадров                           : 25,000 кадров/сек
Цветовое пространство                    : YUV
Субдискретизация насыщенности            : 4:2:0
Битовая глубина                          : 8 бит
Тип развёртки                            : Прогрессивная
Метод сжатия                             : С потерями
Бит/(Пиксели*Кадры)                      : 0.275
Размер потока                            : 624 Мбайт (83%)
Библиотека кодирования                   : XviD 67
Аудио #1
Идентификатор                            : 1
Формат                                   : AC-3
Формат/Информация                        : Audio Coding 3
Идентификатор кодека                     : 2000
Продолжительность                        : 43 м. 59 с.
Вид битрейта                             : Постоянный
Битрейт                                  : 192 Кбит/сек
Каналы                                   : 2 канала
Расположение каналов                     : Front: L R
Частота                                  : 48,0 КГц
Частота кадров                           : 31,250 кадров/сек (1536 SPF)
Битовая глубина                          : 16 бит
Метод сжатия                             : С потерями
Размер потока                            : 60,4 Мбайт (8%)
Выравнивание                             : Разделение по промежуткам
Продолжительность промежутка             : 40  мс. (1,00 видеокадр)
Время предзагрузки промежутка            : 500  мс.
Заголовок                                : RUS
ServiceKind/String                       : Complete Main
Аудио #2
Идентификатор                            : 2
Формат                                   : AC-3
Формат/Информация                        : Audio Coding 3
Идентификатор кодека                     : 2000
Продолжительность                        : 43 м. 59 с.
Вид битрейта                             : Постоянный
Битрейт                                  : 192 Кбит/сек
Каналы                                   : 2 канала
Расположение каналов                     : Front: L R
Частота                                  : 48,0 КГц
Частота кадров                           : 31,250 кадров/сек (1536 SPF)
Битовая глубина                          : 16 бит
Метод сжатия                             : С потерями
Размер потока                            : 60,4 Мбайт (8%)
Выравнивание                             : Разделение по промежуткам
Продолжительность промежутка             : 40  мс. (1,00 видеокадр)
Время предзагрузки промежутка            : 500  мс.
Заголовок                                : ENG
ServiceKind/String                       : Complete Main
01 серия. Дикие гости / Downtown
Исследователь больших кошек Бун Смит открывает скрытый дикий мир в пригородах и поселках, который люди считают собственной территорией.
02 серия. В пригороде / Suburbia
Некоторые животные могут приспосабливаться к жизни в пригородах. Бун следит за уличными собаками в Подмосковье и кенгуру на полях для гольфа
03 серия. На окраинах / Outposts
Заброшенные промышленные территории и аграрные земли населены разными животными. Бун встречает там слонов, волков и павианов
 
Не забывайте говорить Спасибо. Не уходите с раздачи!   
Торрент: Зарегистрирован [13 янв 2018, 20:50] Скачать торрент
Скачать торрент
[ Размер 11.54 КБ / Просмотров 65 ]
Статус:
Проверен
 
.torrent скачан: 0 раз
Хэш: 4978132836530c782c5dff51dfc7981f853eb99f
Размер: 2.2 ГБ (2 360 459 264 байт)
Стать Автором раздачи
 
 
Раздал: 0 байт
Скачал: 0 байт
Ратио: Inf.
Сообщения: 487468
Зарегистрирован: 17 апр 2014, 13:57


  • Похожие торренты
    Ответы
    Просмотры
    Последнее сообщение

Вернуться в Документальные фильмы и телепередачи

Ресурс не предоставляет электронные версии произведений, а занимается лишь коллекционированием и каталогизацией ссылок, присылаемых и публикуемых на форуме нашими читателями. Если вы являетесь правообладателем какого-либо представленного материала и не желаете чтобы ссылка на него находилась в нашем каталоге, свяжитесь с нами и мы незамедлительно удалим её. Файлы для обмена на трекере предоставлены пользователями сайта, и администрация не несёт ответственности за их содержание. Просьба не заливать файлы, защищенные авторскими правами, а также файлы нелегального содержания!
cron