Приключения раввина Якова / Les aventures de Rabbi Jacob (Жерар Ури / Gérard Oury) [1973, Франция, Италия, комедия, приключения, BDRip] DVO (Фильм-Экспорт) + Original (Fre)

 
 Статистика раздачи 
Размер: 1.46 ГБ   |  Зарегистрирован: 13 янв 2018, 20:49   |   .torrent скачан: 0 раз
Сидеров: 1  [ 0 байт/сек ]     Личеров: 0  [ 0 байт/сек ]  
  

Приключения раввина Якова / Les aventures de Rabbi Jacob (Жерар Ури / Gérard Oury) [1973, Франция, Италия, комедия, приключения, BDRip] DVO (Фильм-Экспорт) + Original (Fre)

Сообщение Nakazhu » 13 янв 2018, 20:49

Приключения раввина Якова / Les aventures de Rabbi Jacob
Страна: Франция, Италия
Жанр: Комедия, приключения
Год выпуска: 1973
Продолжительность: 01:35:22
Перевод: Профессиональный (двухголосый закадровый) Фильм-Экспорт по заказу РТР
Субтитры: Нет
Оригинальная аудиодорожка: Французская
Режиссер: Жерар Ури / Gérard Oury
В ролях: Луи де Фюнес, Клод Жиро, Сьюзи Делер, Марсель Далио, Ренцо Монтаньяни, Джанет Брандт, Андре Фалькон, Ксавье Желен, Анри Гибе, Попек.
Описание: Герой Луи де Фюнеса — типичный француз. У него стабильный доход и масса милых сердцу предрассудков. Один из них — четкое деление мира на«своих и чужих», «французов» и «всех прочих» — просто не дает Виктору покоя. Впрочем, это мало беспокоит героя — забияку и ортодокса — пока дорога нечаянного приключения не оборачивается для него опасным путешествием в «большой мир». А там — козни арабских террористов причудливо переплетаются с запутанной историей раввина Якова в Париж, а фабрика жевательной резинки становится полигоном для нешуточных баталий.
Доп. информация:
В данном релизе двухголоска качеством получше, чем в предыдущих раздачах.
За двухголоску большое спасибо Hel_ka67.
Дорожку подгонял сам.
За исходный видеоряд большое спасибо kingsize87.
Подробнее о двухголоске см. ниже.
На русский язык фильм озвучен на киностудии Фильм-Экспорт.
Перевод: Виктора Андреева
Режиссёр: Юлия Бирюкова
Звукооператор: Софья Киселёва
Инженер звукозаписи: Татьяна Карасёва
Текст читали: Людмила Ильина и Александр Клюквин
Отсутствующие из-за рекламы моменты восстановлены той же озвучкой с другого исходника. Его качество чуть похуже.
Восстановленные моменты: 31:47 - 31:51, 01:07:30 - 01:07:33, 01:33:51 - 01:34:12
Сэмпл: https://yadi.sk/i/ryr3d9NO3RRb7p
Качество видео: BDRip
Формат видео: AVI
Видео: 720x432 (5:3), 23,976 (24000/1001) fps, XviD 65 ~1796 kbps avg, 0.241 bit/pixel
Аудио: 48 kHz, AC3 Dolby Digital, 2.0 (L,R), ~192.00 kbps avg Фильм-Экспорт по заказу РТР
Аудио: 48 kHz, AC3 Dolby Digital, 2.0 (L,R), ~192.00 kbps avg Оригинал
Код: Выделить всё
Общее
Полное имя                               : D:\Приключения раввина Якова (1973).avi
Формат                                   : AVI
Формат/Информация                        : Audio Video Interleave
Размер файла                             : 1,46 Гбайт
Продолжительность                        : 1 ч. 35 м.
Общий поток                              : 2194 Кбит/сек
Программа кодирования                    : VirtualDubMod 1.5.10.2 (build 2540/release)
Библиотека кодирования                   : VirtualDubMod build 2540/release
Видео
Идентификатор                            : 0
Формат                                   : MPEG-4 Visual
Профиль формата                          : Advanced Simple@L5
Настройки формата                        : BVOP1 / Custom Matrix
Параметр BVOP формата                    : 1
Параметр QPel формата                    : Нет
Параметр GMC формата                     : Без точки перехода
Параметр матрицы формата                 : Выборочная
Идентификатор кодека                     : XVID
Идентификатор кодека/Подсказка           : XviD
Продолжительность                        : 1 ч. 35 м.
Битрейт                                  : 1796 Кбит/сек
Ширина                                   : 720 пикселей
Высота                                   : 432 пикселя
Соотношение сторон                       : 5:3
Частота кадров                           : 23,976 (24000/1001) кадра/сек
Цветовое пространство                    : YUV
Субдискретизация насыщенности            : 4:2:0
Битовая глубина                          : 8 бит
Тип развёртки                            : Прогрессивная
Метод сжатия                             : С потерями
Бит/(Пиксели*Кадры)                      : 0.241
Размер потока                            : 1,20 Гбайт (82%)
Библиотека кодирования                   : XviD 65
Аудио #1
Идентификатор                            : 1
Формат                                   : AC-3
Формат/Информация                        : Audio Coding 3
Идентификатор кодека                     : 2000
Продолжительность                        : 1 ч. 35 м.
Вид битрейта                             : Постоянный
Битрейт                                  : 192 Кбит/сек
Каналы                                   : 2 канала
Расположение каналов                     : Front: L R
Частота                                  : 48,0 КГц
Частота кадров                           : 31,250 кадров/сек (1536 SPF)
Битовая глубина                          : 16 бит
Метод сжатия                             : С потерями
Размер потока                            : 131 Мбайт (9%)
Выравнивание                             : Разделение по промежуткам
Продолжительность промежутка             : 42  мс. (1,00 видеокадр)
Время предзагрузки промежутка            : 500  мс.
ServiceKind/String                       : Complete Main
Аудио #2
Идентификатор                            : 2
Формат                                   : AC-3
Формат/Информация                        : Audio Coding 3
Идентификатор кодека                     : 2000
Продолжительность                        : 1 ч. 35 м.
Вид битрейта                             : Постоянный
Битрейт                                  : 192 Кбит/сек
Каналы                                   : 2 канала
Расположение каналов                     : Front: L R
Частота                                  : 48,0 КГц
Частота кадров                           : 31,250 кадров/сек (1536 SPF)
Битовая глубина                          : 16 бит
Метод сжатия                             : С потерями
Размер потока                            : 131 Мбайт (9%)
Выравнивание                             : Разделение по промежуткам
Продолжительность промежутка             : 42  мс. (1,00 видеокадр)
Время предзагрузки промежутка            : 500  мс.
ServiceKind/String                       : Complete Main
 
Не забывайте говорить Спасибо. Не уходите с раздачи!   
Торрент: Зарегистрирован [13 янв 2018, 20:49] Скачать торрент
Скачать торрент
[ Размер 15.21 КБ / Просмотров 9 ]
Статус:
Проверен
 
.torrent скачан: 0 раз
Хэш: 4a15d5591bf7897284d8bb033d1f4d7066744775
Размер: 1.46 ГБ (1 569 234 944 байт)
Стать Автором раздачи
 
 
Раздал: 0 байт
Скачал: 0 байт
Ратио: Inf.
Сообщения: 487468
Зарегистрирован: 17 апр 2014, 13:57


  • Похожие торренты
    Ответы
    Просмотры
    Последнее сообщение

Вернуться в Зарубежное кино

Ресурс не предоставляет электронные версии произведений, а занимается лишь коллекционированием и каталогизацией ссылок, присылаемых и публикуемых на форуме нашими читателями. Если вы являетесь правообладателем какого-либо представленного материала и не желаете чтобы ссылка на него находилась в нашем каталоге, свяжитесь с нами и мы незамедлительно удалим её. Файлы для обмена на трекере предоставлены пользователями сайта, и администрация не несёт ответственности за их содержание. Просьба не заливать файлы, защищенные авторскими правами, а также файлы нелегального содержания!
cron