Чечако / Чечакос / The Chechahcos (Льюис Х. Мумау / Lewis H. Moomaw) [1923, США, драма, приключения, немое кино, DVDRip] Sub Rus

 
 Статистика раздачи 
Размер: 896 МБ   |  Зарегистрирован: 13 янв 2018, 20:49   |   .torrent скачан: 0 раз
Сидеров: 1  [ 0 байт/сек ]     Личеров: 0  [ 0 байт/сек ]  
  

Чечако / Чечакос / The Chechahcos (Льюис Х. Мумау / Lewis H. Moomaw) [1923, США, драма, приключения, немое кино, DVDRip] Sub Rus

Сообщение Nakazhu » 13 янв 2018, 20:49

Чечако / Чечакос / The Chechahcos
Страна: США
Жанр: драма, приключения, немое кино
Год выпуска: 1923
Продолжительность: 01:26:58
Перевод: Субтитры
Субтитры: русские (lavr73)
Оригинальная аудиодорожка: музыка
Режиссер: Льюис Х. Мумау / Lewis H. Moomaw
В ролях: Уильям Диллс, Альберт Ван Антверп, Ева Гордон, Марджи, Алексис Б. Люче, Глэдис Джонстон, Х. Миллс, Ховард Уэбстер
Описание: На корабле, напраляющемся на Аляску со старателями и искателями приключений на борту, разгорается пожар. В суматохе миссис Стэнлоу теряет свою дочь Рут, которая оказывается на попечении Райли "Подковы" и Боба Декстера. Игрок Ричард Стил сообщает миссис Стэнлоу, что её дочь пропала.
Прошло десять лет. Райли и Декстер владеют процветающим золотым рудником, а Стил только приехал в город, чтобы открыть салун. Рут же превратилась в красавицу и влюбилась в Декстера. Происходит множество драматических событий на фоне величественных ледников и других прекрасных пейзажей Аляски.
Сэмпл: http://sendfile.su/1391276
Качество видео: DVDRip
Формат видео: AVI
Видео: 544x416 (1.31:1), 29.970 fps, DivX Codec 6.6.1 ~1240 kbps avg, 0.18 bit/pixel
Аудио: 48 kHz, AC3 Dolby Digital, 2/0 (L,R) ch, ~192 kbps
Формат субтитров: softsub (SRT)
Код: Выделить всё
General
Complete name               : I:\Downloaded\Chechahcos\Chechahcos.avi
Format                      : AVI
Format/Info                 : Audio Video Interleave
File size                   : 896 MiB
Duration                    : 1 h 26 min
Overall bit rate            : 1 440 kb/s
Video
ID                          : 0
Format                      : MPEG-4 Visual
Format settings, BVOP       : 1
Format settings, QPel       : No
Format settings, GMC        : No warppoints
Format settings, Matrix     : Default (H.263)
Codec ID                    : DX50
Codec ID/Hint               : DivX 5
Duration                    : 1 h 26 min
Bit rate                    : 1 240 kb/s
Nominal bit rate            : 4 854 kb/s
Width                       : 544 pixels
Height                      : 416 pixels
Display aspect ratio        : 4:3
Frame rate                  : 29.970 (30000/1001) FPS
Color space                 : YUV
Chroma subsampling          : 4:2:0
Bit depth                   : 8 bits
Scan type                   : Progressive
Compression mode            : Lossy
Bits/(Pixel*Frame)          : 0.183
Stream size                 : 771 MiB (86%)
Writing library             : DivX 6.6.1.4
Audio
ID                          : 1
Format                      : AC-3
Format/Info                 : Audio Coding 3
Format settings, Endianness : Big
Codec ID                    : 2000
Duration                    : 1 h 26 min
Bit rate mode               : Constant
Bit rate                    : 192 kb/s
Channel(s)                  : 2 channels
Channel positions           : Front: L R
Sampling rate               : 48.0 kHz
Frame rate                  : 31.250 FPS (1536 SPF)
Bit depth                   : 16 bits
Compression mode            : Lossy
Stream size                 : 119 MiB (13%)
Alignment                   : Split accross interleaves
Interleave, duration        : 67  ms (2.00 video frames)
Interleave, preload duratio : 500  ms
Service kind                : Complete Main
 
Не забывайте говорить Спасибо. Не уходите с раздачи!   
Торрент: Зарегистрирован [13 янв 2018, 20:49] Для скачивания .torrent
необходима регистрация
Или скачать с помощью
MediaGet
Статус:
Проверен
 
.torrent скачан: 0 раз
Хэш: d5297136223b7b55c990cf95530fc15b9835c813
Размер: 896 МБ (939 524 990 байт)
Стать Автором раздачи
 
 
Раздал: 0 байт
Скачал: 0 байт
Ратио: Inf.
Сообщения: 378029
Зарегистрирован: 17 апр 2014, 13:57


  • Похожие торренты
    Ответы
    Просмотры
    Последнее сообщение

Вернуться в Зарубежное кино

Ресурс не предоставляет электронные версии произведений, а занимается лишь коллекционированием и каталогизацией ссылок, присылаемых и публикуемых на форуме нашими читателями. Если вы являетесь правообладателем какого-либо представленного материала и не желаете чтобы ссылка на него находилась в нашем каталоге, свяжитесь с нами и мы незамедлительно удалим её. Файлы для обмена на трекере предоставлены пользователями сайта, и администрация не несёт ответственности за их содержание. Просьба не заливать файлы, защищенные авторскими правами, а также файлы нелегального содержания!
cron