Крутой прикол / Nipagesh Basivuv / The big gag (Йехуда Баркан, Эзра Шем-Тов / Yehuda Barkan, Ezra Shem-Tov) [1987, Израиль, Комедия, VHSRip] AVO (Антон Пронин)

 
 Статистика раздачи 
Размер: 1.45 ГБ   |  Зарегистрирован: 13 янв 2018, 20:49   |   .torrent скачан: 0 раз
Сидеров: 1  [ 0 байт/сек ]     Личеров: 0  [ 0 байт/сек ]  
  

Крутой прикол / Nipagesh Basivuv / The big gag (Йехуда Баркан, Эзра Шем-Тов / Yehuda Barkan, Ezra Shem-Tov) [1987, Израиль, Комедия, VHSRip] AVO (Антон Пронин)

Сообщение Nakazhu » 13 янв 2018, 20:49

Крутой прикол / Nipagesh Basivuv / The big gag
Страна: Израиль
Жанр: Комедия
Год выпуска: 1987
Продолжительность: 01:23:20
Перевод: Авторский (одноголосый закадровый) Антон Пронин
Субтитры: нет
Режиссер: Йехуда Баркан, Эзра Шем-Тов / Yehuda Barkan, Ezra Shem-Tov
В ролях: Йехуда Баркан
John Berks
Игорь Борисов
Moshon Elbohor
Сирил Грин
Кэролайн Лангфорд
Данута Лато
Робин Пул
Моше Тимор
Описание: Международная комедийная труппа путешествует по всему миру придумывая всякие невинные трюки, разыгрывая ничего не подозревающих людей...
Сэмпл: https://yadi.sk/i/qqLA9JdO3RRdmn
Качество видео: VHSRip
Формат видео: AVI
Видео: Xvid MPEG-4 , 640x480 (1.33:1) , 25.000 fps , 2 293 Kbps
Аудио: AC3 , 48 kHz ,192.00 kbps avg , 2/0 (L,R) ch
Код: Выделить всё
Complete name              Крутой прикол 1987 (Pronin).avi
Format                      : AVI
Format/Info                 : Audio Video Interleave
File size                   : 1.45 GiB
Duration                    : 1h 23mn
Overall bit rate            : 2 495 Kbps
Writing application         : VirtualDubMod 1.5.10.3 | www.virtualdub-fr.org || (build 2550/release)
Writing library             : VirtualDub build 35491/release
Video
ID                          : 0
Format                      : MPEG-4 Visual
Format profile              : Advanced Simple@L5
Format settings, BVOP       : 1
Format settings, QPel       : No
Format settings, GMC        : No warppoints
Format settings, Matrix     : Custom
Codec ID                    : XVID
Codec ID/Hint               : XviD
Duration                    : 1h 23mn
Bit rate                    : 2 293 Kbps
Width                       : 640 pixels
Height                      : 480 pixels
Display aspect ratio        : 4:3
Frame rate                  : 25.000 fps
Color space                 : YUV
Chroma subsampling          : 4:2:0
Bit depth                   : 8 bits
Scan type                   : Progressive
Compression mode            : Lossy
Bits/(Pixel*Frame)          : 0.299
Stream size                 : 1.33 GiB (92%)
Writing library             : XviD 73
Audio
ID                          : 1
Format                      : AC-3
Format/Info                 : Audio Coding 3
Mode extension              : CM (complete main)
Format settings, Endianness : Big
Codec ID                    : 2000
Duration                    : 1h 23mn
Bit rate mode               : Constant
Bit rate                    : 192 Kbps
Channel(s)                  : 2 channels
Channel positions           : Front: L R
Sampling rate               : 48.0 KHz
Frame rate                  : 31.250 fps (1536 spf)
Compression mode            : Lossy
Stream size                 : 114 MiB (8%)
Alignment                   : Aligned on interleaves
Interleave, duration        : 40 ms (1.00 video frame)
Interleave, preload duratio : 512 ms
 
Не забывайте говорить Спасибо. Не уходите с раздачи!   
Торрент: Зарегистрирован [13 янв 2018, 20:49] Для скачивания .torrent
необходима регистрация
Или скачать с помощью
MediaGet
Статус:
Проверен
 
.torrent скачан: 0 раз
Хэш: 1987161b17ba51633b997549deec93f9051edb90
Размер: 1.45 ГБ (1 559 123 310 байт)
Стать Автором раздачи
 
 
Раздал: 0 байт
Скачал: 0 байт
Ратио: Inf.
Сообщения: 379654
Зарегистрирован: 17 апр 2014, 13:57


  • Похожие торренты
    Ответы
    Просмотры
    Последнее сообщение

Вернуться в Зарубежное кино

Ресурс не предоставляет электронные версии произведений, а занимается лишь коллекционированием и каталогизацией ссылок, присылаемых и публикуемых на форуме нашими читателями. Если вы являетесь правообладателем какого-либо представленного материала и не желаете чтобы ссылка на него находилась в нашем каталоге, свяжитесь с нами и мы незамедлительно удалим её. Файлы для обмена на трекере предоставлены пользователями сайта, и администрация не несёт ответственности за их содержание. Просьба не заливать файлы, защищенные авторскими правами, а также файлы нелегального содержания!
cron