Прямой эфир. Андрей Малахов. Год без доктора Лизы от 28.12.17 [2017, Ток-шоу, WEBRip]

 
 Статистика раздачи 
Размер: 420.23 МБ   |  Зарегистрирован: 13 янв 2018, 19:41   |   .torrent скачан: 0 раз
Сидеров: 1  [ 0 байт/сек ]     Личеров: 0  [ 0 байт/сек ]  
  

Прямой эфир. Андрей Малахов. Год без доктора Лизы от 28.12.17 [2017, Ток-шоу, WEBRip]

Сообщение Nakazhu » 13 янв 2018, 19:41

Прямой эфир. Андрей Малахов. Год без доктора Лизы от 28.12.17
Дата/Год выпуска: 2017
Страна: Россия
Жанр: Ток-шоу
Продолжительность: 00:55:13
Перевод: Отсутствует
Телеканал: Россия 1
Описание: Телепрограмма канала «Россия» «Прямой эфир» - настоящая хроника нашей жизни. Уже много лет в прайм-тайм зрители собираются в студии и у экранов своих телевизоров, чтобы узнать о проблемах, которые волнуют всех. О том, что будет обсуждать вся страна. О том, что можно увидеть только в «Прямом эфире»! Наступил новый этап в истории программы – в эфире «Прямого эфира» новый ведущий – Андрей Малахов! Смотрите в программе – истории и расследования, полюбившиеся зрителям и ставшие визитной карточкой программы, всё то, что по-настоящему важно и интересно зрителям нашей страны.
Доп. информация: Выпуск от 28.12.17
качество: WEBRip
формат: MP4
Видео: h.264, 1280x720p, 16:9, 1 144 Kbps, 25.000 fps
Аудио: AAC, 126 Kbps, 44.1 KHz, stereo
Код: Выделить всё
General
Complete name                            : D:\Downloads\мои-торренты\pryamoy_efir_malahov_god_bez_doctora_lizy_28-12-17.mp4
Format                                   : MPEG-4
Format profile                           : Base Media / Version 2
Codec ID                                 : mp42
File size                                : 420 MiB
Duration                                 : 55mn 13s
Overall bit rate mode                    : Variable
Overall bit rate                         : 1 064 Kbps
Encoded date                             : UTC 2017-12-29 08:40:46
Tagged date                              : UTC 2017-12-29 08:40:46
gsst                                     : 0
gstd                                     : 3313557
Video
ID                                       : 1
Format                                   : AVC
Format/Info                              : Advanced Video Codec
Format profile                           : Main@L3.1
Format settings, CABAC                   : Yes
Format settings, ReFrames                : 3 frames
Codec ID                                 : avc1
Codec ID/Info                            : Advanced Video Coding
Duration                                 : 55mn 13s
Bit rate                                 : 935 Kbps
Width                                    : 1 280 pixels
Height                                   : 720 pixels
Display aspect ratio                     : 16:9
Frame rate mode                          : Constant
Frame rate                               : 25.000 fps
Color space                              : YUV
Chroma subsampling                       : 4:2:0
Bit depth                                : 8 bits
Scan type                                : Progressive
Bits/(Pixel*Frame)                       : 0.041
Stream size                              : 369 MiB (88%)
Title                                    : ISO Media file produced by Google Inc. Created on: 12/29/2017.
Encoded date                             : UTC 2017-12-29 08:40:46
Tagged date                              : UTC 2017-12-29 08:40:46
Color primaries                          : BT.709
Transfer characteristics                 : BT.709
Matrix coefficients                      : BT.709
Audio
ID                                       : 2
Format                                   : AAC
Format/Info                              : Advanced Audio Codec
Format profile                           : LC
Codec ID                                 : 40
Duration                                 : 55mn 13s
Bit rate mode                            : Variable
Bit rate                                 : 126 Kbps
Channel(s)                               : 2 channels
Channel positions                        : Front: L R
Sampling rate                            : 44.1 KHz
Compression mode                         : Lossy
Stream size                              : 49.6 MiB (12%)
Title                                    : ISO Media file produced by Google Inc. Created on: 12/29/2017.
Encoded date                             : UTC 2017-12-29 08:40:46
Tagged date                              : UTC 2017-12-29 08:40:46
 
Не забывайте говорить Спасибо. Не уходите с раздачи!   
Торрент: Зарегистрирован [13 янв 2018, 19:41] Для скачивания .torrent
необходима регистрация
Или скачать с помощью
MediaGet
Статус:
Проверен
 
.torrent скачан: 0 раз
Хэш: ebd7c2375dfd7cf65233923c10c728026064168f
Размер: 420.23 МБ (440 640 468 байт)
Стать Автором раздачи
 
 
Раздал: 0 байт
Скачал: 0 байт
Ратио: Inf.
Сообщения: 487468
Зарегистрирован: 17 апр 2014, 13:57


  • Похожие торренты
    Ответы
    Просмотры
    Последнее сообщение

Вернуться в Документальные фильмы и телепередачи

Ресурс не предоставляет электронные версии произведений, а занимается лишь коллекционированием и каталогизацией ссылок, присылаемых и публикуемых на форуме нашими читателями. Если вы являетесь правообладателем какого-либо представленного материала и не желаете чтобы ссылка на него находилась в нашем каталоге, свяжитесь с нами и мы незамедлительно удалим её. Файлы для обмена на трекере предоставлены пользователями сайта, и администрация не несёт ответственности за их содержание. Просьба не заливать файлы, защищенные авторскими правами, а также файлы нелегального содержания!
cron