Когда ангелы спят… (Рашид Сулейменов) [2017, Казахстан, мелодрама, драма, SATRip]

 
 Статистика раздачи 
Размер: 744.09 МБ   |  Зарегистрирован: 13 янв 2018, 16:46   |   .torrent скачан: 0 раз
Сидеров: 1  [ 0 байт/сек ]     Личеров: 0  [ 0 байт/сек ]  
  

Когда ангелы спят… (Рашид Сулейменов) [2017, Казахстан, мелодрама, драма, SATRip]

Сообщение Nakazhu » 13 янв 2018, 16:46

Когда ангелы спят…
Год выпуска: 2017
Страна: Казахстан
Жанр: мелодрама, драма
Продолжительность: 01:26:17.839 (129446 frames)
Перевод: Не требуется
Оригинальная аудиодорожка: русский
Русские субтитры: вшитые на казахскую речь
Режиссер: Рашид Сулейменов
В ролях: Жулдыз Айдарбекова, Кайрат Нуртас, Тлектес Мейрамов, Елжас Рахимбеков, Шадияр Абдуллаев, Олжас Нурбаев, Дархан Манаков
Описание: Самое приятное время для любой девушки — период подготовки к свадьбе — оборачивается для Арман и ее жениха Курмана сущим адом. Арман похищают и насилуют четверо пьяных мажоров. А ее жених Курман, пытаясь спасти любимую, нарывается на серьезные неприятности с органами правопорядка. Оправившись после травм, Арман убеждена, что ей удастся наказать насильников. Однако только тут начинается настоящая драма. Жертва изнасилования внезапно обнаруживает, что виновной окружающие считают ее саму. Уговаривают молчать — ведь о подобном не говорят; просят не лезть на рожон — с «большими людьми» бесполезно спорить. Даже собственные родственники умоляют не раздувать скандал, а молча взять предложенные деньги. Однако Арман жаждет справедливости…
Качество: SATRip
Формат: AVI
Видео кодек: XviD
Аудио кодек: МР3
Видео: 688x288 (2.39:1), 25 fps, XviD build 73 ~1099 kbps avg, 0.22 bit/pixel
Аудио: 48 kHz, MPEG Layer 3, 1 ch, ~96.00 kbps avg
E:\004 Мои раздачи\Когда ангелы спят 745\kogda_angely_spyat_745_[torrents.ru]_by_bm11.avi
General
Complete name : E:\004 Мои раздачи\Когда ангелы спят 745\kogda_angely_spyat_745_[torrents.ru]_by_bm11.avi
Format : AVI
Format/Info : Audio Video Interleave
File size : 744 MiB
Duration : 1h 26mn
Overall bit rate : 1 206 Kbps
Director : bm11
Writing application : VirtualDubMod 1.5.10.3 | www.virtualdub-fr.org || (build 2550/release)
Video
Format : MPEG-4 Visual
Format profile : Streaming Video@L1
Format settings, BVOP : Yes
Format settings, QPel : No
Format settings, GMC : No warppoints
Format settings, Matrix : Custom
Codec ID : XVID
Codec ID/Hint : XviD
Duration : 1h 26mn
Bit rate : 1 100 Kbps
Width : 688 pixels
Height : 288 pixels
Display aspect ratio : 2.35
Frame rate : 25.000 fps
Resolution : 24 bits
Colorimetry : 4:2:0
Scan type : Progressive
Bits/(Pixel*Frame) : 0.222
Stream size : 679 MiB (91%)
Writing library : XviD 73
Audio
Format : MPEG Audio
Format version : Version 1
Format profile : Layer 3
Codec ID : 55
Codec ID/Hint : MP3
Duration : 1h 26mn
Bit rate mode : Constant
Bit rate : 96.0 Kbps
Minimum bit rate : 96.0 Kbps
Channel(s) : 1 channel
Sampling rate : 48.0 KHz
Resolution : 16 bits
Stream size : 59.3 MiB (8%)
Alignment : Aligned on interleaves
Interleave, duration : 40 ms (1.00 video frame)
Interleave, preload duration : 504 ms
Writing library : LAME3.99r
Encoding settings : CBR
 
Не забывайте говорить Спасибо. Не уходите с раздачи!   
Торрент: Зарегистрирован [13 янв 2018, 16:46] Для скачивания .torrent
необходима регистрация
Или скачать с помощью
MediaGet
Статус:
Проверен
 
.torrent скачан: 0 раз
Хэш: 97906588cc5e90923a4a22acbf42297cd2aff657
Размер: 744.09 МБ (780 236 800 байт)
Стать Автором раздачи
 
 
Раздал: 0 байт
Скачал: 0 байт
Ратио: Inf.
Сообщения: 487468
Зарегистрирован: 17 апр 2014, 13:57


  • Похожие торренты
    Ответы
    Просмотры
    Последнее сообщение

Вернуться в Зарубежное кино

Ресурс не предоставляет электронные версии произведений, а занимается лишь коллекционированием и каталогизацией ссылок, присылаемых и публикуемых на форуме нашими читателями. Если вы являетесь правообладателем какого-либо представленного материала и не желаете чтобы ссылка на него находилась в нашем каталоге, свяжитесь с нами и мы незамедлительно удалим её. Файлы для обмена на трекере предоставлены пользователями сайта, и администрация не несёт ответственности за их содержание. Просьба не заливать файлы, защищенные авторскими правами, а также файлы нелегального содержания!
cron