Когда ангелы спят… (Рашид Сулейменов) [2017, Казахстан, мелодрама, драма, SATRip]

 
 Статистика раздачи 
Размер: 1.09 ГБ   |  Зарегистрирован: 13 янв 2018, 16:44   |   .torrent скачан: 0 раз
Сидеров: 1  [ 0 байт/сек ]     Личеров: 0  [ 0 байт/сек ]  
  

Когда ангелы спят… (Рашид Сулейменов) [2017, Казахстан, мелодрама, драма, SATRip]

Сообщение Nakazhu » 13 янв 2018, 16:44

Когда ангелы спят…
Год выпуска: 2017
Страна: Казахстан
Жанр: мелодрама, драма
Продолжительность: 01:26:17.839 (129446 frames)
Перевод: Не требуется
Оригинальная аудиодорожка: русский
Русские субтитры: вшитые на казахскую речь
Режиссер: Рашид Сулейменов
В ролях: Жулдыз Айдарбекова, Кайрат Нуртас, Тлектес Мейрамов, Елжас Рахимбеков, Шадияр Абдуллаев, Олжас Нурбаев, Дархан Манаков
Описание: Самое приятное время для любой девушки — период подготовки к свадьбе — оборачивается для Арман и ее жениха Курмана сущим адом. Арман похищают и насилуют четверо пьяных мажоров. А ее жених Курман, пытаясь спасти любимую, нарывается на серьезные неприятности с органами правопорядка. Оправившись после травм, Арман убеждена, что ей удастся наказать насильников. Однако только тут начинается настоящая драма. Жертва изнасилования внезапно обнаруживает, что виновной окружающие считают ее саму. Уговаривают молчать — ведь о подобном не говорят; просят не лезть на рожон — с «большими людьми» бесполезно спорить. Даже собственные родственники умоляют не раздувать скандал, а молча взять предложенные деньги. Однако Арман жаждет справедливости…
Качество: SATRip
Формат: AVI
Видео кодек: XviD
Аудио кодек: АС3
Видео: 720x304 (2.37:1), 25 fps, XviD build 73 ~1613 kbps avg, 0.29 bit/pixel
Аудио: 48 kHz, AC3 Dolby Digital, 1/0 (C) ch, ~192.00 kbps avg
E:\004 Мои раздачи\Когда ангелы спят 1,09\kogda_angely_spyat_1.09_[torrents.ru]_by_bm11.avi
General
Complete name : E:\004 Мои раздачи\Когда ангелы спят 1,09\kogda_angely_spyat_1.09_[torrents.ru]_by_bm11.avi
Format : AVI
Format/Info : Audio Video Interleave
File size : 1.09 GiB
Duration : 1h 26mn
Overall bit rate : 1 815 Kbps
Director : bm11
Writing application : VirtualDubMod 1.5.10.3 | www.virtualdub-fr.org || (build 2550/release)
Video
Format : MPEG-4 Visual
Format profile : Streaming Video@L1
Format settings, BVOP : Yes
Format settings, QPel : No
Format settings, GMC : No warppoints
Format settings, Matrix : Custom
Codec ID : XVID
Codec ID/Hint : XviD
Duration : 1h 26mn
Bit rate : 1 614 Kbps
Width : 720 pixels
Height : 304 pixels
Display aspect ratio : 2.35
Frame rate : 25.000 fps
Resolution : 24 bits
Colorimetry : 4:2:0
Scan type : Progressive
Bits/(Pixel*Frame) : 0.295
Stream size : 996 MiB (89%)
Writing library : XviD 73
Audio
Format : AC-3
Format/Info : Audio Coding 3
Codec ID : 2000
Duration : 1h 26mn
Bit rate mode : Constant
Bit rate : 192 Kbps
Channel(s) : 1 channel
Channel positions : C
Sampling rate : 48.0 KHz
Stream size : 119 MiB (11%)
Alignment : Split accross interleaves
Interleave, duration : 40 ms (1.00 video frame)
Interleave, preload duration : 500 ms
 
Не забывайте говорить Спасибо. Не уходите с раздачи!   
Торрент: Зарегистрирован [13 янв 2018, 16:44] Скачать торрент
Скачать торрент
[ Размер 11.42 КБ / Просмотров 9 ]
Статус:
Проверен
 
.torrent скачан: 0 раз
Хэш: 1421e4a6d091b384a7846ae546283c477236665e
Размер: 1.09 ГБ (1 175 023 616 байт)
Стать Автором раздачи
 
 
Раздал: 0 байт
Скачал: 0 байт
Ратио: Inf.
Сообщения: 487468
Зарегистрирован: 17 апр 2014, 13:57


  • Похожие торренты
    Ответы
    Просмотры
    Последнее сообщение

Вернуться в Зарубежное кино

Ресурс не предоставляет электронные версии произведений, а занимается лишь коллекционированием и каталогизацией ссылок, присылаемых и публикуемых на форуме нашими читателями. Если вы являетесь правообладателем какого-либо представленного материала и не желаете чтобы ссылка на него находилась в нашем каталоге, свяжитесь с нами и мы незамедлительно удалим её. Файлы для обмена на трекере предоставлены пользователями сайта, и администрация не несёт ответственности за их содержание. Просьба не заливать файлы, защищенные авторскими правами, а также файлы нелегального содержания!
cron