Брат или брак (Ернар Нургалиев) [2017, Казахстан, комедия, SATRip]

 
 Статистика раздачи 
Размер: 744.3 МБ   |  Зарегистрирован: 13 янв 2018, 16:28   |   .torrent скачан: 0 раз
Сидеров: 1  [ 0 байт/сек ]     Личеров: 0  [ 0 байт/сек ]  
  

Брат или брак (Ернар Нургалиев) [2017, Казахстан, комедия, SATRip]

Сообщение Nakazhu » 13 янв 2018, 16:28

Брат или брак
Год выпуска: 2017
Страна: Казахстан
Жанр: комедия
Продолжительность: 01:26:25.227 (124321 frames)
Перевод: Не требуется
Оригинальная аудиодорожка: русский
Русские субтитры: вшитые на казахскую речь
Режиссер: Ернар Нургалиев
В ролях: Куралай Анарбекова, Даурен Сергазин, Нурлан Сабуров, Абунасыр Сериков, Бауыржан Каптагай, Тауекел Муслим, Мурат Бисенбин
Описание: У каждого человека можно найти небольшой минус. У Гаухар таких минусов целых пять: это её старшие братья. Они так сильно любят свою сестрёнку, что не дают ей выйти замуж. Айдару придётся пройти самые странные испытания в его жизни, а Гаухар предстоит сделать самый сложный выбор: брат или брак?
Качество: SATRip
Формат: AVI
Видео кодек: XviD
Аудио кодек: МР3
Видео: 688x288 (2.39:1), 23.976 fps, XviD build 73 ~1098 kbps avg, 0.23 bit/pixel
Аудио: 48 kHz, MPEG Layer 3, 1 ch, ~96.00 kbps avg
E:\004 Мои раздачи\Брат или брак 745\brat_ili_brak_745_[torrents.ru]_by_bm11.avi
General
Complete name : E:\004 Мои раздачи\Брат или брак 745\brat_ili_brak_745_[torrents.ru]_by_bm11.avi
Format : AVI
Format/Info : Audio Video Interleave
File size : 744 MiB
Duration : 1h 26mn
Overall bit rate : 1 204 Kbps
Director : bm11
Writing application : VirtualDubMod 1.5.10.3 | www.virtualdub-fr.org || (build 2550/release)
Video
Format : MPEG-4 Visual
Format profile : Streaming Video@L1
Format settings, BVOP : Yes
Format settings, QPel : No
Format settings, GMC : No warppoints
Format settings, Matrix : Custom
Codec ID : XVID
Codec ID/Hint : XviD
Duration : 1h 26mn
Bit rate : 1 099 Kbps
Width : 688 pixels
Height : 288 pixels
Display aspect ratio : 2.35
Frame rate : 23.976 fps
Resolution : 24 bits
Colorimetry : 4:2:0
Scan type : Progressive
Bits/(Pixel*Frame) : 0.231
Stream size : 679 MiB (91%)
Writing library : XviD 73
Audio
Format : MPEG Audio
Format version : Version 1
Format profile : Layer 3
Codec ID : 55
Codec ID/Hint : MP3
Duration : 1h 26mn
Bit rate mode : Constant
Bit rate : 96.0 Kbps
Minimum bit rate : 96.0 Kbps
Channel(s) : 1 channel
Sampling rate : 48.0 KHz
Resolution : 16 bits
Stream size : 59.3 MiB (8%)
Alignment : Aligned on interleaves
Interleave, duration : 42 ms (1.00 video frame)
Interleave, preload duration : 504 ms
Writing library : LAME3.99r
Encoding settings : CBR
 
Не забывайте говорить Спасибо. Не уходите с раздачи!   
Торрент: Зарегистрирован [13 янв 2018, 16:28] Для скачивания .torrent
необходима регистрация
Или скачать с помощью
MediaGet
Статус:
Проверен
 
.torrent скачан: 0 раз
Хэш: 1c1823d58c449f15a458151ba71b083808182203
Размер: 744.3 МБ (780 460 032 байт)
Стать Автором раздачи
 
 
Раздал: 0 байт
Скачал: 0 байт
Ратио: Inf.
Сообщения: 487468
Зарегистрирован: 17 апр 2014, 13:57


  • Похожие торренты
    Ответы
    Просмотры
    Последнее сообщение

Вернуться в Зарубежное кино

Ресурс не предоставляет электронные версии произведений, а занимается лишь коллекционированием и каталогизацией ссылок, присылаемых и публикуемых на форуме нашими читателями. Если вы являетесь правообладателем какого-либо представленного материала и не желаете чтобы ссылка на него находилась в нашем каталоге, свяжитесь с нами и мы незамедлительно удалим её. Файлы для обмена на трекере предоставлены пользователями сайта, и администрация не несёт ответственности за их содержание. Просьба не заливать файлы, защищенные авторскими правами, а также файлы нелегального содержания!
cron