Брат или брак (Ернар Нургалиев) [2017, Казахстан, комедия, SATRip]

 
 Статистика раздачи 
Размер: 1.09 ГБ   |  Зарегистрирован: 13 янв 2018, 16:13   |   .torrent скачан: 0 раз
Сидеров: 1  [ 0 байт/сек ]     Личеров: 0  [ 0 байт/сек ]  
  

Брат или брак (Ернар Нургалиев) [2017, Казахстан, комедия, SATRip]

Сообщение Nakazhu » 13 янв 2018, 16:13

Брат или брак
Год выпуска: 2017
Страна: Казахстан
Жанр: комедия
Продолжительность: 01:26:25.227 (124321 frames)
Перевод: Не требуется
Оригинальная аудиодорожка: русский
Русские субтитры: вшитые на казахскую речь
Режиссер: Ернар Нургалиев
В ролях: Куралай Анарбекова, Даурен Сергазин, Нурлан Сабуров, Абунасыр Сериков, Бауыржан Каптагай, Тауекел Муслим, Мурат Бисенбин
Описание: У каждого человека можно найти небольшой минус. У Гаухар таких минусов целых пять: это её старшие братья. Они так сильно любят свою сестрёнку, что не дают ей выйти замуж. Айдару придётся пройти самые странные испытания в его жизни, а Гаухар предстоит сделать самый сложный выбор: брат или брак?
Качество: SATRip
Формат: AVI
Видео кодек: XviD
Аудио кодек: АС3
Видео: 720x304 (2.37:1), 23.976 fps, XviD build 73 ~1610 kbps avg, 0.31 bit/pixel
Аудио: 48 kHz, AC3 Dolby Digital, 1/0 (C) ch, ~192.00 kbps avg
E:\004 Мои раздачи\Брат или брак 1,09\brat_ili_brak_1.09_[torrents.ru]_by_bm11.avi
General
Complete name : E:\004 Мои раздачи\Брат или брак 1,09\brat_ili_brak_1.09_[torrents.ru]_by_bm11.avi
Format : AVI
Format/Info : Audio Video Interleave
File size : 1.09 GiB
Duration : 1h 26mn
Overall bit rate : 1 812 Kbps
Director : bm11
Writing application : VirtualDubMod 1.5.10.3 | www.virtualdub-fr.org || (build 2550/release)
Video
Format : MPEG-4 Visual
Format profile : Streaming Video@L1
Format settings, BVOP : Yes
Format settings, QPel : No
Format settings, GMC : No warppoints
Format settings, Matrix : Custom
Codec ID : XVID
Codec ID/Hint : XviD
Duration : 1h 26mn
Bit rate : 1 611 Kbps
Width : 720 pixels
Height : 304 pixels
Display aspect ratio : 2.35
Frame rate : 23.976 fps
Resolution : 24 bits
Colorimetry : 4:2:0
Scan type : Progressive
Bits/(Pixel*Frame) : 0.307
Stream size : 996 MiB (89%)
Writing library : XviD 73
Audio
Format : AC-3
Format/Info : Audio Coding 3
Codec ID : 2000
Duration : 1h 26mn
Bit rate mode : Constant
Bit rate : 192 Kbps
Channel(s) : 1 channel
Channel positions : C
Sampling rate : 48.0 KHz
Stream size : 119 MiB (11%)
Alignment : Split accross interleaves
Interleave, duration : 42 ms (1.00 video frame)
Interleave, preload duration : 500 ms
 
Не забывайте говорить Спасибо. Не уходите с раздачи!   
Торрент: Зарегистрирован [13 янв 2018, 16:13] Для скачивания .torrent
необходима регистрация
Или скачать с помощью
MediaGet
Статус:
Проверен
 
.torrent скачан: 0 раз
Хэш: 781dc4b5be5e6ddb6a9fd49dcd6d55131dc4a6dd
Размер: 1.09 ГБ (1 174 665 216 байт)
Стать Автором раздачи
 
 
Раздал: 0 байт
Скачал: 0 байт
Ратио: Inf.
Сообщения: 487394
Зарегистрирован: 17 апр 2014, 13:57


  • Похожие торренты
    Ответы
    Просмотры
    Последнее сообщение

Вернуться в Зарубежное кино

Ресурс не предоставляет электронные версии произведений, а занимается лишь коллекционированием и каталогизацией ссылок, присылаемых и публикуемых на форуме нашими читателями. Если вы являетесь правообладателем какого-либо представленного материала и не желаете чтобы ссылка на него находилась в нашем каталоге, свяжитесь с нами и мы незамедлительно удалим её. Файлы для обмена на трекере предоставлены пользователями сайта, и администрация не несёт ответственности за их содержание. Просьба не заливать файлы, защищенные авторскими правами, а также файлы нелегального содержания!
cron