Женщина восстает / A Woman Rebels (Марк Сэндрич / Mark Sandrich) [1936, США, драма, мелодрама, DVDRip] VO (Алексей Яковлев) + Original Eng

 
 Статистика раздачи 
Размер: 1.46 ГБ   |  Зарегистрирован: 13 янв 2018, 14:58   |   .torrent скачан: 0 раз
Сидеров: 1  [ 0 байт/сек ]     Личеров: 0  [ 0 байт/сек ]  
  

Женщина восстает / A Woman Rebels (Марк Сэндрич / Mark Sandrich) [1936, США, драма, мелодрама, DVDRip] VO (Алексей Яковлев) + Original Eng

Сообщение Nakazhu » 13 янв 2018, 14:58

Женщина восстает / A Woman Rebels
#77Страна: США
Студия: RKO Radio Pictures Inc.
Жанр: драма, мелодрама
Год выпуска: 1936
Продолжительность: 01:28:19
Перевод: Одноголосый закадровый - Алексей Яковлев
Субтитры: нет
Оригинальная аудиодорожка: английский
Режиссер: Марк Сэндрич / Mark Sandrich
Композитор: Рой Уэбб / Roy Webb
В ролях: Кэтрин Хепберн / Katharine Hepburn ... Pamela Thistlewaite
Херберт Маршалл / Herbert Marshall ... Thomas Lane
Элизабет Аллан / Elizabeth Allan ... Flora Anne Thistlewaite
Дональд Крисп / Donald Crisp ... Judge Byron Thistlewaite
Дорис Дадли / Doris Dudley ... Young Flora
Дэвид Мэннерс / David Manners ... Lieutenant Alan Craig Freeland

Люсиль Уотсон / Lucile Watson ... Betty Bumble

Ван Хефлин / Van Heflin ... Lord Gerald Waring Gaythorne
Леонард Кэри / Leonard Carey ... Lord Gaythorne's Butler, в титрах не указан
Джордж Дэвис / George Davis ... French Purser
, в титрах не указан
Элспет Даджон / Elspeth Dudgeon ... Lord Gaythorne's Maid
, в титрах не указана
Конни Эмиральд / Connie Emerald ... Lady Gaythorne, в титрах не указана
Описание: Викторианская Англия. Сёстры Памела и Флора Тислвейт живут под присмотром консервативного отца и праведной гувернантки. С юных лет Памела отличается независимым характером. В отличие от сестры, которая видит своё счастье в браке с любимым, Памела считает, что брачные узы в отношениях с мужчиной вовсе не обязательны. Бросая вызов предрассудкам, она даже решается родить внебрачного ребёнка от своего возлюбленного лорда Джеральда Уоринга. Свою дочь она выдаёт за ребёнка недавно скончавшейся сестры и воспитывает девочку как племянницу.
Вскоре Памела становится успешным журналистом и создает свой собственный феминистский журнал. Она освещает такие темы, как равноправие полов, использование детского труда, медицинское обслуживание, проблемы трудоустройства. Неожиданно для себя, Памела становится лидером феминистского движения.
Вместе с профессиональным успехом в жизни Памелы забрезжил огонёк и личного счастья в лице дипломата Томаса Лейна. Но всё рушится, когда не подозревающая о своём истинном происхождении подросшая дочь Памелы сообщает, что собирается замуж за сына лорда Джеральда Уоринга...

Дополнительная информация:
- Этот фильм стал дебютом в кино Вана Хефлина.





БОЛЬШОЕ СПАСИБО:
Работа со звуком и реавторинг DVD - AlekceyR76

Перевод и озвучивание фильма - Алексей Яковлев
Также Большое Спасибо всем, кто принял участие в появлении перевода и озвучки к этому фильму
:
Lafajet, Магда, jasenka, yanaelisa, елена 22, cementit, HippopotamusIV, old76, Ugo927, sindzi, voostorg, Wrobel, борюська, mangust1, spartakeynoir, GalaUkr

Сэмпл: http://multi-up.com/1183029
Качество видео: DVDRip
Формат видео: AVI
Видео: XviD, 624x480 (1.30:1), 23.976 fps, 1966 Kbps
Аудио 1: AC3, 48.0 KHz, 2 ch., 192 Kbps (русский одноголосый закадровый перевод) - Алексей Яковлев
Аудио 2: AC3, 48.0 KHz, 2 ch., 192 Kbps (оригинальная английская звуковая дорожка)
Общее
Полное имя : R:\РАЗДАЧИ\РИПЫ\A Woman Rebels 1936\A Woman Rebels.avi
Формат : AVI
Формат/Информация : Audio Video Interleave
Размер файла : 1,46 Гбайт
Продолжительность : 1 ч. 28 м.
Общий поток : 2364 Кбит/сек
Программа кодирования : VirtualDubMod 1.5.10.3 | www.virtualdub-fr.org || (build 2550/release)
Библиотека кодирования : VirtualDubMod build 2550/release
Видео
Идентификатор : 0
Формат : MPEG-4 Visual
Профиль формата : Advanced Simple@L5
Параметр BVOP формата : 2
Параметр QPel формата : Нет
Параметр GMC формата : Без точки перехода
Параметр матрицы формата : Default (H.263)
Идентификатор кодека : DX50
Идентификатор кодека/Подсказка : DivX 5
Продолжительность : 1 ч. 28 м.
Битрейт : 1966 Кбит/сек
Ширина : 624 пикселя
Высота : 480 пикселей
Соотношение сторон : 4:3
Частота кадров : 23,976 (24000/1001) кадра/сек
Цветовое пространство : YUV
Субдискретизация насыщенности : 4:2:0
Битовая глубина : 8 бит
Тип развёртки : Прогрессивная
Метод сжатия : С потерями
Бит/(Пиксели*Кадры) : 0.274
Размер потока : 1,21 Гбайт (83%)
Библиотека кодирования : XviD 73
Аудио #1
Идентификатор : 1
Формат : AC-3
Формат/Информация : Audio Coding 3
Параметр Endianness формата : Big
Идентификатор кодека : 2000
Продолжительность : 1 ч. 28 м.
Вид битрейта : Постоянный
Битрейт : 192 Кбит/сек
Каналы : 2 канала
Расположение каналов : Front: L R
Частота : 48,0 КГц
Частота кадров : 31,250 кадров/сек (1536 spf)
Битовая глубина : 16 бит
Метод сжатия : С потерями
Размер потока : 121 Мбайт (8%)
Выравнивание : Разделение по промежуткам
Продолжительность промежутка : 42 мс. (1,00 видеокадр)
Время предзагрузки промежутка : 500 мс.
ServiceKind/String : Complete Main
Аудио #2
Идентификатор : 2
Формат : AC-3
Формат/Информация : Audio Coding 3
Параметр Endianness формата : Big
Идентификатор кодека : 2000
Продолжительность : 1 ч. 28 м.
Вид битрейта : Постоянный
Битрейт : 192 Кбит/сек
Каналы : 2 канала
Расположение каналов : Front: L R
Частота : 48,0 КГц
Частота кадров : 31,250 кадров/сек (1536 spf)
Битовая глубина : 16 бит
Метод сжатия : С потерями
Размер потока : 121 Мбайт (8%)
Выравнивание : Разделение по промежуткам
Продолжительность промежутка : 42 мс. (1,00 видеокадр)
Время предзагрузки промежутка : 500 мс.
ServiceKind/String : Complete Main
 
Не забывайте говорить Спасибо. Не уходите с раздачи!   
Торрент: Зарегистрирован [13 янв 2018, 14:58] Для скачивания .torrent
необходима регистрация
Или скачать с помощью
MediaGet
Статус:
Проверен
 
.torrent скачан: 0 раз
Хэш: e1961d54669706c08510c5a7f340fca3f6b57787
Размер: 1.46 ГБ (1 566 048 256 байт)
Стать Автором раздачи
 
 
Раздал: 0 байт
Скачал: 0 байт
Ратио: Inf.
Сообщения: 378029
Зарегистрирован: 17 апр 2014, 13:57


  • Похожие торренты
    Ответы
    Просмотры
    Последнее сообщение

Вернуться в Зарубежное кино

Ресурс не предоставляет электронные версии произведений, а занимается лишь коллекционированием и каталогизацией ссылок, присылаемых и публикуемых на форуме нашими читателями. Если вы являетесь правообладателем какого-либо представленного материала и не желаете чтобы ссылка на него находилась в нашем каталоге, свяжитесь с нами и мы незамедлительно удалим её. Файлы для обмена на трекере предоставлены пользователями сайта, и администрация не несёт ответственности за их содержание. Просьба не заливать файлы, защищенные авторскими правами, а также файлы нелегального содержания!
cron