Возвращение живых мертвецов 2 / The Return of the Living Dead Part II (1988) WEB-DL 1080p

 
 Статистика раздачи 
Размер: 3.95 ГБ   |  Зарегистрирован: 13 янв 2018, 14:58   |   .torrent скачан: 0 раз
Сидеров: 1  [ 0 байт/сек ]     Личеров: 0  [ 0 байт/сек ]  
  

Возвращение живых мертвецов 2 / The Return of the Living Dead Part II (1988) WEB-DL 1080p

Сообщение graf_t » 13 янв 2018, 14:58

Информация о фильме
Название: Возвращение живых мертвецов 2
Оригинальное название: The Return of the Living Dead Part II
Год выхода: 1988
Жанр: ужасы, комедия
Режиссер: Кен Видерхорн
В ролях: Майкл Кенуорти, Тор Ван Линген, Джейсон Хоган, Джеймс Карен, Том Мэтьюз, Сюзанн Снайдер, Марша Дитлайн, Ханала Сагал, Джонатан Терри, Дэна Эшбрук, Сэлли Смайт, Аллан Траутман, Дон Максвелл, Филип Брунс, Митч Пилледжи, Арт Бонилья

О фильме:
Мертвые не любят «прохлаждаться» под землёй, в особенности в фильмах ужасов. И вегетарианская диета им совсем не подходит. Именно поэтому кровожадные зомби решают в очередной раз полакомиться человеческими мозгами.
Новое поколение зомби появилось на свет из-за аварии армейского грузовика, перевозившего нервно-паралитический газ. Зловещие зелёные испарения доползли до местного кладбища и оживили сотни проголодавшихся покойников, которые с энтузиазмом вышли на охоту!
Ожившие мертвецы решают устроить — пир, «приготовив», «в качестве «главного блюда», беспечных жителей местного городка! Мёртвые очень не любят живых, и их месть людям будет беспощадна и ужасна!

Страна: США
Продолжительность: 01:29:23
Перевод: Профессиональный (многоголосый, закадровый), авторский (одноголосый, закадровый)


General
Unique ID : 229579815540338723423400750659875115285 (0xACB776D1B8D47CCDBD84192F1B781115)
Complete name : D:DEMUXReturn.of.the.Living.Dead.Part.II.1988.1080p.WEB-DL.5xRus.2xEng.mkv
Format : Matroska
Format version : Version 4 / Version 2
File size : 3.95 GiB
Duration : 1h 29mn
Overall bit rate : 6 334 Kbps
Encoded date : UTC 2018-01-13 08:58:15
Writing application : mkvmerge v6.1.0 ('Old Devil') built on Mar 2 2013 14:32:37
Writing library : libebml v1.3.0 + libmatroska v1.4.0

Video
ID : 1
Format : AVC
Format/Info : Advanced Video Codec
Format profile : High@L4.0
Format settings, CABAC : Yes
Format settings, ReFrames : 4 frames
Codec ID : V_MPEG4/ISO/AVC
Duration : 1h 29mn
Bit rate : 4 864 Kbps
Width : 1 908 pixels
Height : 1 080 pixels
Display aspect ratio : 16:9
Frame rate : 23.976 fps
Color space : YUV
Chroma subsampling : 4:2:0
Bit depth : 8 bits
Scan type : Progressive
Bits/(Pixel*Frame) : 0.098
Stream size : 3.04 GiB (77%)
Language : English
Default : Yes
Forced : No
Color primaries : BT.709-5, BT.1361, IEC 61966-2-4, SMPTE RP177
Transfer characteristics : BT.709-5, BT.1361
Matrix coefficients : BT.709-5, BT.1361, IEC 61966-2-4 709, SMPTE RP177

Audio #1
ID : 2
Format : AC-3
Format/Info : Audio Coding 3
Mode extension : CM (complete main)
Codec ID : A_AC3
Duration : 1h 29mn
Bit rate mode : Constant
Bit rate : 192 Kbps
Channel(s) : 2 channels
Channel positions : Front: L R
Sampling rate : 48.0 KHz
Bit depth : 16 bits
Compression mode : Lossy
Stream size : 123 MiB (3%)
Title : Prem'er Video Film 2.0 192 kbps
Language : Russian
Default : Yes
Forced : No

Audio #2
ID : 3
Format : AC-3
Format/Info : Audio Coding 3
Mode extension : CM (complete main)
Codec ID : A_AC3
Duration : 1h 29mn
Bit rate mode : Constant
Bit rate : 192 Kbps
Channel(s) : 2 channels
Channel positions : Front: L R
Sampling rate : 48.0 KHz
Bit depth : 16 bits
Compression mode : Lossy
Stream size : 123 MiB (3%)
Title : Filonov AC3 2.0 192 kbps
Language : Russian
Default : No
Forced : No

Audio #3
ID : 4
Format : AC-3
Format/Info : Audio Coding 3
Format profile : Dolby Digital
Mode extension : CM (complete main)
Codec ID : A_AC3
Duration : 1h 29mn
Bit rate mode : Constant
Bit rate : 192 Kbps
Channel(s) : 2 channels
Channel positions : Front: L R
Sampling rate : 48.0 KHz
Bit depth : 16 bits
Compression mode : Lossy
Stream size : 123 MiB (3%)
Title : Zhivov AC3 2.0 192 kbps
Language : Russian
Default : No
Forced : No

Audio #4
ID : 5
Format : AC-3
Format/Info : Audio Coding 3
Mode extension : CM (complete main)
Codec ID : A_AC3
Duration : 1h 29mn
Bit rate mode : Constant
Bit rate : 192 Kbps
Channel(s) : 2 channels
Channel positions : Front: L R
Sampling rate : 48.0 KHz
Bit depth : 16 bits
Compression mode : Lossy
Stream size : 123 MiB (3%)
Title : Gavrilov AC3 2.0 192 kbps
Language : Russian
Default : No
Forced : No

Audio #5
ID : 6
Format : AC-3
Format/Info : Audio Coding 3
Mode extension : CM (complete main)
Codec ID : A_AC3
Duration : 1h 29mn
Bit rate mode : Constant
Bit rate : 192 Kbps
Channel(s) : 2 channels
Channel positions : Front: L R
Sampling rate : 48.0 KHz
Bit depth : 16 bits
Compression mode : Lossy
Stream size : 123 MiB (3%)
Title : Son'kin AC3 2.0 192 kbps
Language : Russian
Default : No
Forced : No

Audio #6
ID : 7
Format : AC-3
Format/Info : Audio Coding 3
Format profile : Dolby Digital
Mode extension : CM (complete main)
Codec ID : A_AC3
Duration : 1h 29mn
Bit rate mode : Constant
Bit rate : 192 Kbps
Channel(s) : 2 channels
Channel positions : Front: L R
Sampling rate : 48.0 KHz
Bit depth : 16 bits
Compression mode : Lossy
Stream size : 123 MiB (3%)
Title : Original Warner Bros. AC3 2.0 192 kbps
Language : English
Default : No
Forced : No

Audio #7
ID : 8
Format : AC-3
Format/Info : Audio Coding 3
Mode extension : CM (complete main)
Codec ID : A_AC3
Duration : 1h 29mn
Bit rate mode : Constant
Bit rate : 192 Kbps
Channel(s) : 2 channels
Channel positions : Front: L R
Sampling rate : 48.0 KHz
Bit depth : 16 bits
Compression mode : Lossy
Stream size : 123 MiB (3%)
Title : Original Theatrical AC3 2.0 192 kbps
Language : English
Default : No
Forced : No

Text #1
ID : 9
Format : UTF-8
Codec ID : S_TEXT/UTF8
Codec ID/Info : UTF-8 Plain Text
Title : var.1
Language : Russian
Default : No
Forced : No

Text #2
ID : 10
Format : UTF-8
Codec ID : S_TEXT/UTF8
Codec ID/Info : UTF-8 Plain Text
Title : var.2 Theatrical
Language : Russian
Default : No
Forced : No

Text #3
ID : 11
Format : UTF-8
Codec ID : S_TEXT/UTF8
Codec ID/Info : UTF-8 Plain Text
Language : English
Default : No
Forced : No

Menu
00:00:00.000 : en:Credits.
00:03:16.000 : en:Finders keepers.
00:08:04.000 : en:No respect for the dead.
00:11:48.000 : en:Unholy smoke.
00:18:37.000 : en:Slime time.
00:23:31.000 : en:Out and about.
00:29:57.000 : en:Calling for help.
00:34:16.000 : en:Head trauma.
00:37:29.000 : en:House party.
00:41:49.000 : en:Family meal.
00:43:10.000 : en:Hands off.
00:47:17.000 : en:Where is everybody.
00:52:05.000 : en:Armed and dead serious.
00:55:08.000 : en:Not all together.
00:59:12.000 : en:Ed, quit it.
01:02:44.000 : en:Not into dead guys.
01:06:30.000 : en:We'll give'em brains.
01:10:52.000 : en:Chow time.
01:12:53.000 : en:Gate crashers.
01:17:15.000 : en:Jesse at the wheel.
01:20:24.000 : en:Fried zombies.
01:24:12.000 : en:You win.
01:25:32.000 : en:End Credits.


Файл
Кодек: x.264
Качество: WEB-DL 1080p
Видео: 1908 x 1080; 23,976 fps; 4864 Kbps
Звук:
Аудио1: Русский, AC3 2.0 192 Kbps 48,0 КГц (MVO)(с VHS)
Аудио2: Русский, AC3 2.0 192 Kbps 48,0 КГц (Филонов)
Аудио3: Русский, AC3 2.0 192 Kbps 48,0 КГц (Живов)
Аудио4: Русский, AC3 2.0 192 Kbps 48,0 КГц (Гаврилов)(с VHS)
Аудио5: Русский, AC3 2.0 192 Kbps 48,0 КГц (Сонькин)(c VHS)
Аудио6: English, AC3 2.0 192 Kbps 48,0 КГц (Original Warner Bros.)
Аудио7: English, AC3 2.0 192 Kbps 48,0 КГц (Original Theatrical)

Рип с зарубежного трекера
Субтитры: русские x2 (на версию Warner Bros. и на театралку), английские

Семпл

 
Не забывайте говорить Спасибо. Не уходите с раздачи!   
Торрент: Зарегистрирован [13 янв 2018, 14:58] Для скачивания .torrent
необходима регистрация
Или скачать с помощью
MediaGet
Статус:
Проверен
 
.torrent скачан: 0 раз
Хэш: bec77b5bcb54ec0f80d7b4b71d2977c48af1c7ff
Размер: 3.95 ГБ (4 246 324 559 байт)
Стать Автором раздачи
 
 
Раздал: 100 ГБ
Скачал: 0 байт
Ратио: Seed.
Сообщения: 52803
Зарегистрирован: 31 мар 2015, 18:04


  • Похожие торренты
    Ответы
    Просмотры
    Последнее сообщение

Вернуться в Зарубежное кино

Ресурс не предоставляет электронные версии произведений, а занимается лишь коллекционированием и каталогизацией ссылок, присылаемых и публикуемых на форуме нашими читателями. Если вы являетесь правообладателем какого-либо представленного материала и не желаете чтобы ссылка на него находилась в нашем каталоге, свяжитесь с нами и мы незамедлительно удалим её. Файлы для обмена на трекере предоставлены пользователями сайта, и администрация не несёт ответственности за их содержание. Просьба не заливать файлы, защищенные авторскими правами, а также файлы нелегального содержания!
cron