Лама-мститель / Смертельная акула / The Lama Avenger / Der Killerhai / The Three Avengers / Da chu tou (Вонг Ва-Кей / Wong Wah-Kei) [1979, Гонконг, боевик, боевые искусства, комедия, VHSRip] VO

 
 Статистика раздачи 
Размер: 1.09 ГБ   |  Зарегистрирован: 13 янв 2018, 09:13   |   .torrent скачан: 0 раз
Сидеров: 1  [ 0 байт/сек ]     Личеров: 0  [ 0 байт/сек ]  
  

Лама-мститель / Смертельная акула / The Lama Avenger / Der Killerhai / The Three Avengers / Da chu tou (Вонг Ва-Кей / Wong Wah-Kei) [1979, Гонконг, боевик, боевые искусства, комедия, VHSRip] VO

Сообщение Nakazhu » 13 янв 2018, 09:14

Лама-мститель / The Lama Avenger / The Three Avengers / Da chu tou
Страна: Гонконг
Жанр: боевик, боевые искусства, комедия
Год выпуска: 1979
Продолжительность: 01:14:37
Перевод: Одноголосый закадровый
Субтитры: нет
Режиссер: Вонг Ва-Кей / Wong Wah-Kei
В ролях: Брюс Лай / Bruce Li, Чин Юэт-Санг, Лам Као и много других лиц китайской национальности
Описание: Двое неразлучных друзей (Брюс Лай и Чин Юэт-Санг) вынуждены уйти из школы, в которой их обучали кунгфу, и поселяются у тети одного из них. Но этот дом уже облюбовали застройщики, которые не остановятся ни перед чем, лишь бы заполучить его в свое распоряжение. В том числе и перед тем, чтобы решить дело силой.
Доп. информация: Оцифровка VHS (личный архив) и получение VHSRip alenavova
Эксклюзив для rutracker.org. При размещении данного релиза на других сайтах ссылка на автора alenavova обязательна.
Релиз
СЕМПЛ https://yadi.sk/i/0sITF0sK3RQvUG
Качество видео: VHSRip
Формат видео: AVI
Видео: 720x352 (2.05:1), 25 fps, XviD build 73 ~1887 kbps avg, 0.30 bit/pixel
Аудио: 48 kHz, AC3 Dolby Digital, 2/0 (L,R) ch, ~192 kbps
Смертельная акула - The Lama Avenger [by alenavova].avi
Format : AVI
Format/Info : Audio Video Interleave
File size : 1.09 GiB
Duration : 1 h 14 min
Overall bit rate : 2 089 kb/s
Movie name : Смертельная акула - The Lama Avenger [by alenavova]
Director : by alenavova
Writing application : VirtualDubMod 1.5.10.3 | www.virtualdub-fr.org || (build 2550/release)
Copyright : Edich2
Comment : RuTracker.org
Video
ID : 0
Format : MPEG-4 Visual
Format profile : Advanced Simple@L5
Format settings, BVOP : 2
Format settings, QPel : No
Format settings, GMC : No warppoints
Format settings, Matrix : Custom
Codec ID : XVID
Codec ID/Hint : XviD
Duration : 1 h 14 min
Bit rate : 1 887 kb/s
Width : 720 pixels
Height : 352 pixels
Display aspect ratio : 2.045
Frame rate : 25.000 FPS
Color space : YUV
Chroma subsampling : 4:2:0
Bit depth : 8 bits
Scan type : Progressive
Compression mode : Lossy
Bits/(Pixel*Frame) : 0.298
Stream size : 1 007 MiB (90%)
Writing library : XviD 73
Audio
ID : 1
Format : AC-3
Format/Info : Audio Coding 3
Format settings, Endianness : Big
Codec ID : 2000
Duration : 1 h 14 min
Bit rate mode : Constant
Bit rate : 192 kb/s
Channel(s) : 2 channels
Channel positions : Front: L R
Sampling rate : 48.0 kHz
Frame rate : 31.250 FPS (1536 spf)
Bit depth : 16 bits
Compression mode : Lossy
Stream size : 102 MiB (9%)
Alignment : Split accross interleaves
Interleave, duration : 40 ms (1.00 video frame)
Interleave, preload duratio : 500 ms
Service kind : Complete Main

 
Не забывайте говорить Спасибо. Не уходите с раздачи!   
Торрент: Зарегистрирован [13 янв 2018, 09:13] Скачать торрент
Скачать торрент
[ Размер 11.38 КБ / Просмотров 24 ]
Статус:
Проверен
 
.torrent скачан: 0 раз
Хэш: 0dd44133ed6a0e48974a7398cb4882d1ef9db561
Размер: 1.09 ГБ (1 169 215 488 байт)
Стать Автором раздачи
 
 
Раздал: 0 байт
Скачал: 0 байт
Ратио: Inf.
Сообщения: 487468
Зарегистрирован: 17 апр 2014, 13:57


  • Похожие торренты
    Ответы
    Просмотры
    Последнее сообщение

Вернуться в Азиатские фильмы

Ресурс не предоставляет электронные версии произведений, а занимается лишь коллекционированием и каталогизацией ссылок, присылаемых и публикуемых на форуме нашими читателями. Если вы являетесь правообладателем какого-либо представленного материала и не желаете чтобы ссылка на него находилась в нашем каталоге, свяжитесь с нами и мы незамедлительно удалим её. Файлы для обмена на трекере предоставлены пользователями сайта, и администрация не несёт ответственности за их содержание. Просьба не заливать файлы, защищенные авторскими правами, а также файлы нелегального содержания!
cron