[ATV3] Чего хочет Джульетта / L'embarras du choix (Эрик Лавэн / Eric Lavaine ) [2017, Франция, Мелодрама, комедия, WEB-DL, HD (1080p)] MVO

 
 Статистика раздачи 
Размер: 3.49 ГБ   |  Зарегистрирован: 13 янв 2018, 01:59   |   .torrent скачан: 0 раз
Сидеров: 1  [ 0 байт/сек ]     Личеров: 0  [ 0 байт/сек ]  
  

[ATV3] Чего хочет Джульетта / L'embarras du choix (Эрик Лавэн / Eric Lavaine ) [2017, Франция, Мелодрама, комедия, WEB-DL, HD (1080p)] MVO

Сообщение Nakazhu » 13 янв 2018, 01:59

Чего хочет Джульетта / L'embarras du choix

«Бриджит Джонс по-французски»
5.717 / 10 5.40 / 10
Год выпуска: 2017
Страна: Франция
Жанр: Мелодрама, комедия
Продолжительность: 01:34:06
Перевод: Многоголосый закадровый (iTunes)
Оригинальная аудиодорожка: Нет
Cубтитры: Нет
Режиссёр: Эрик Лавэн
Сценарий: Laure Hennequart, Эрик Лавэн, Лорен Тернер
Продюсер: Ален Бенгиги, Томас Верхак, Вивьен Асланян
Оператор: Франсуа Эрнандес
Композитор: Фабьен Каэн
Художник: Delphine De Casanove
Монтаж: Венсан Зюффраньери
В ролях: Александра Лами, Арно Дюкре, Джейми Бамбер, Энн Маривин, Сабрина Уазани, Лионель Астье, Жером Коммандёр, Арно Анриет, Франк Дюбоск, Франк Гастамбид
Сборы в России: $8 819
Мировая премьера: 19 января 2017
Премьера (РФ): 7 декабря 2017, «ПРОвзгляд»
Цифровой релиз: 25 декабря 2017, «НД Плэй»
Описание: Джульетта все время сталкивается с одной и той же проблемой: ей трудно определиться с выбором. Без участия отца и друзей она не в состоянии решить ни какое платье надеть, ни что заказать в ресторане, ни как провести вечер. Но когда на ее пути одновременно появляются Пол и Этьен, то она впервые решает сделать самостоятельный выбор.
Качество исходника: WEB-DL 1080p (BlueBird)
Качество: WEB-DL
Тип: HD (1080p)
Контейнер: M4V
Видео: H.264, 1920x856, 2.25:1, 4 755 Kbps, 24.000 fps
Аудио 1: Русский/Многоголосый закадровый (iTunes), AAC / 2.0 / 160 Kbps / 48.0 KHz
Аудио 2: Русский/Многоголосый закадровый (iTunes), AC-3 / 5.1 / 384 Kbps / 48.0 KHz


Код:
Код: Выделить всё
Sort Name: Чего хочет Джульетта
XID: Apple:vendor_id:2017-1015785
contentID: 1317311180
Copyright: © 2017 ПРОвзгляд
Screenwriters: Laure Hennequart, Эрик Лавэн, Лорен Тернер
Producers: Ален Бенгиги, Томас Верхак, Вивьен Асланян
Director: Эрик Лавэн
Cast: Александра Лами, Арно Дюкре, Джейми Бамбер, Энн Маривин, Сабрина Уазани, Лионель Астье, Жером Коммандёр, Арно Анриет, Франк Дюбоск, Франк Гастамбид
Studio: A Plus Image 7, Atelier de Production, Canal+
Rating: 135
Long Description: Джульетта все время сталкивается с одной и той же проблемой: ей трудно определиться с выбором. Без участия отца и друзей она не в состоянии решить ни какое платье надеть, ни что заказать в ресторане, ни как провести вечер. Но когда на ее пути одновременно появляются Пол и Этьен, то она впервые решает сделать самостоятельный выбор.
Description: Джульетта все время сталкивается с одной и той же проблемой: ей трудно определиться с выбором.
Release Date: 2017-12-07T08:00:00Z
Genre: Комедии
Artist: Эрик Лавэн
Name: Чего хочет Джульетта

Код:
Код: Выделить всё
General
Complete name : /Users/imac/HandBrake/Chego.hochet.Juliet.WEB-DL.1080p.m4v
Format : MPEG-4
Codec ID : M4V
File size : 3.49 GiB
Duration : 1h 34mn
Overall bit rate mode : Variable
Overall bit rate : 5 302 Kbps
Movie name : Чего хочет Джульетта
Performer : Эрик Лавэн
Director : Эрик Лавэн
Actor : Александра Лами / Арно Дюкре / Джейми Бамбер / Энн Маривин / Сабрина Уазани / Лионель Астье / Жером Коммандёр / Арно Анриет / Франк Дюбоск / Франк Гастамбид
Screenplay by : Laure Hennequart / Эрик Лавэн / Лорен Тернер
Producer : Ален Бенгиги / Томас Верхак / Вивьен Асланян
Production studio : A Plus Image 7, Atelier de Production, Canal+
Genre : Комедии
ContentType : Short Film
Description : Джульетта все время сталкивается с одной и той же проблемой: ей трудно определиться с выбором.
Recorded date : UTC 2017-12-07 08:00:00
Encoded date : UTC 2018-01-12 22:42:04
Tagged date : UTC 2018-01-12 22:43:11
Copyright : © 2017 ПРОвзгляд
Cover : Yes
Rating : None
Title/Sort : Чего хочет Джульетта
LongDescription : Джульетта все время сталкивается с одной и той же проблемой: ей трудно определиться с выбором. Без участия отца и друзей она не в состоянии решить ни какое платье надеть, ни что заказать в ресторане, ни как провести вечер. Но когда на ее пути одновременно появляются Пол и Этьен, то она впервые решает сделать самостоятельный выбор.
AppleStoreCatalogID : 1317311180
Vendor : Apple:vendor_id:2017-1015785
ContentRating : ru-movie|16+|375|
Video #1
ID : 1
Format : AVC
Format/Info : Advanced Video Codec
Format profile : High@L4
Format settings, CABAC : Yes
Format settings, ReFrames : 5 frames
Codec ID : avc1
Codec ID/Info : Advanced Video Coding
Duration : 1h 34mn
Bit rate : 4 755 Kbps
Width : 1 920 pixels
Height : 856 pixels
Display aspect ratio : 2.25:1
Frame rate mode : Variable
Frame rate : 24.000 fps
Minimum frame rate : 23.810 fps
Maximum frame rate : 24.390 fps
Color space : YUV
Chroma subsampling : 4:2:0
Bit depth : 8 bits
Scan type : Progressive
Bits/(Pixel*Frame) : 0.121
Stream size : 3.13 GiB (90%)
Title : Main Program
Language : French
Encoded date : UTC 2018-01-12 22:42:04
Tagged date : UTC 2018-01-12 22:42:10
Color range : Limited
Color primaries : BT.709
Transfer characteristics : BT.709
Matrix coefficients : BT.709
Video #2
ID : 5
Format : JPEG
Codec ID : jpeg
Duration : 1h 34mn
Bit rate mode : Variable
Bit rate : 818 bps
Width : 640 pixels
Height : 285 pixels
Display aspect ratio : 2.25:1
Frame rate mode : Variable
Frame rate : 0.002 fps
Minimum frame rate : 0.002 fps
Maximum frame rate : 0.003 fps
Color space : YUV
Chroma subsampling : 4:2:0
Bit depth : 8 bits
Compression mode : Lossy
Bits/(Pixel*Frame) : 2.242
Stream size : 699 KiB (0%)
Title : Chapter Images
Language : French
Encoded date : UTC 2018-01-12 22:42:17
Tagged date : UTC 2018-01-12 22:42:18
Audio #1
ID : 2
Format : AAC
Format/Info : Advanced Audio Codec
Format profile : LC
Codec ID : 40
Duration : 1h 34mn
Source duration : 1h 34mn
Bit rate mode : Variable
Bit rate : 156 Kbps
Maximum bit rate : 240 Kbps
Channel(s) : 2 channels
Channel positions : Front: L R
Sampling rate : 48.0 KHz
Compression mode : Lossy
Stream size : 105 MiB (3%)
Source stream size : 105 MiB (3%)
Title : Russian Stereo
Language : Russian
Encoded date : UTC 2018-01-12 22:42:04
Tagged date : UTC 2018-01-12 22:42:11
Audio #2
ID : 3
Format : AC-3
Format/Info : Audio Coding 3
Mode extension : CM (complete main)
Format settings, Endianness : Big
Codec ID : ac-3
Duration : 1h 34mn
Bit rate mode : Constant
Bit rate : 384 Kbps
Channel(s) : 6 channels
Channel positions : Front: L C R, Side: L R, LFE
Sampling rate : 48.0 KHz
Bit depth : 16 bits
Compression mode : Lossy
Stream size : 258 MiB (7%)
Title : Russian DD 5.1
Language : Russian
Encoded date : UTC 2018-01-12 22:42:04
Tagged date : UTC 2018-01-12 22:42:10
Menu #1
00:00:00.000 : Глава 1
00:06:04.916 : Глава 2
00:14:26.499 : Глава 3
00:22:18.415 : Глава 4
00:27:42.540 : Глава 5
00:35:25.331 : Глава 6
00:44:52.497 : Глава 7
00:50:35.372 : Глава 8
00:55:23.913 : Глава 9
01:00:33.038 : Глава 10
01:06:57.788 : Глава 11
01:12:31.913 : Глава 12
01:19:52.288 : Глава 13
01:26:22.996 : Глава 14
Menu #2
ID : 4
Codec ID : text
Duration : 1h 34mn
Language : French
Encoded date : UTC 2018-01-12 22:42:11
Tagged date : UTC 2018-01-12 22:42:11
00:00:00.000 : Глава 1
00:06:04.916 : Глава 2
00:14:26.499 : Глава 3
00:22:18.415 : Глава 4
00:27:42.540 : Глава 5
00:35:25.331 : Глава 6
00:44:52.497 : Глава 7
00:50:35.372 : Глава 8
00:55:23.913 : Глава 9
01:00:33.038 : Глава 10
01:06:57.788 : Глава 11
01:12:31.913 : Глава 12
01:19:52.288 : Глава 13
01:26:22.996 : Глава 14
Bit rate mode : VBR




Релиз подготовлен для просмотра на Apple TV, iPad, iPhone, iPod Touch.
Для просмотра данного релиза на компьютере с ОС Windows рекомендуется использовать VLC media player
 
Не забывайте говорить Спасибо. Не уходите с раздачи!   
Торрент: Зарегистрирован [13 янв 2018, 01:59] Для скачивания .torrent
необходима регистрация
Или скачать с помощью
MediaGet
Статус:
Проверен
 
.torrent скачан: 0 раз
Хэш: 269e5381da78fbff3cf288d8569e34b57fe364ce
Размер: 3.49 ГБ (3 742 454 169 байт)
Стать Автором раздачи
 
 
Раздал: 0 байт
Скачал: 0 байт
Ратио: Inf.
Сообщения: 439334
Зарегистрирован: 17 апр 2014, 13:57


  • Похожие торренты
    Ответы
    Просмотры
    Последнее сообщение

Вернуться в Фильмы HD для Apple TV

Ресурс не предоставляет электронные версии произведений, а занимается лишь коллекционированием и каталогизацией ссылок, присылаемых и публикуемых на форуме нашими читателями. Если вы являетесь правообладателем какого-либо представленного материала и не желаете чтобы ссылка на него находилась в нашем каталоге, свяжитесь с нами и мы незамедлительно удалим её. Файлы для обмена на трекере предоставлены пользователями сайта, и администрация не несёт ответственности за их содержание. Просьба не заливать файлы, защищенные авторскими правами, а также файлы нелегального содержания!
cron