Страница 1 из 1

Обыкновенное чудо (Марк Захаров) [1978, музыкальный, сказка, DVB-AVC] Без реставрации

СообщениеДобавлено: 12 янв 2018, 22:19
Nakazhu
Обыкновенное чудо
Жанр: музыкальный, сказка
Год выпуска: 1978
Продолжительность: 02:17:28 (01:08:40 + 01:08:48)
Режиссёр: Марк Захаров
В ролях: Олег Янковский, Ирина Купченко, Евгений Леонов, Евгения Симонова, Александр Абдулов, Екатерина Васильева, Юрий Соломин, Андрей Миронов, Ерванд Арзуманян, Всеволод Ларионов, Нина Пушкова, Валентина Воилкова, Владимир Долинский, Андрей Леонов
Описание: История о любви, написанная языком сказки. Налицо все сказочные атрибуты - волшебство, принцесса, заколдованный юноша. Только поцелуй принцессы не превратит юношу в принца, а вернет ему облик медведя. Это условие мешает влюблённым пожениться и жить долго и счастливо.
Доп. информация: запись с IPTV в Беларуси, ремукс записи потока *.ts в *.mkv программой VideoReDo.
Версия фильма без реставрации. Подробнее - под спойлером "Сравнение".
Производство: Мосфильм при участии Гостелерадио СССР
Сценарий: Евгений Шварц, Марк Захаров
Оператор: Николай Немоляев
Художник: Людмила Кусакова
Композитор: Геннадий Гладков
Семпл: http://sendfile.su/1391031
Качество видео: DVB
Формат видео: MKV
Видео: AVC (H264), 720x576@785x576 (4:3), анаморф, 25 fps, 2131-2307 kbps
Аудио: MP2, 192 kbps, 2 channels, 48 kHz
http://rutracker.org/forum/viewtopic.php?t=136238
http://screenshotcomparison.com/comparison/128803
http://screenshotcomparison.com/comparison/128806
Следует отметить, что данная версия в отдельных эпизодах более тёмная:
http://screenshotcomparison.com/comparison/128807
Интересна совершенно иной колоризацией отдельных эпизодов:
http://screenshotcomparison.com/comparison/128808
Присутствуют дефекты плёнки:
Код: Выделить всё
General
Unique ID                                : 209178174157419856334725048766311420936 (0x9D5E403D17C275DC409B3C8C074BD408)
Complete name                            : D:\Work\Video\Обыкновенное чудо\Обыкновенное чудо. Серия 1.mkv
Format                                   : Matroska
Format version                           : Version 2
File size                                : 1.14 GiB
Duration                                 : 1 h 8 min
Overall bit rate                         : 2 371 kb/s
Writing application                      : Lavf54.63.104
Writing library                          : Lavf54.63.104
Video
ID                                       : 1
Format                                   : AVC
Format/Info                              : Advanced Video Codec
Format profile                           : High@L3
Format settings, CABAC                   : Yes
Format settings, ReFrames                : 4 frames
Codec ID                                 : V_MPEG4/ISO/AVC
Duration                                 : 1 h 8 min
Bit rate                                 : 2 131 kb/s
Width                                    : 720 pixels
Height                                   : 576 pixels
Display aspect ratio                     : 4:3
Original display aspect ratio            : 4:3
Frame rate mode                          : Constant
Frame rate                               : 25.000 FPS
Standard                                 : Component
Color space                              : YUV
Chroma subsampling                       : 4:2:0
Bit depth                                : 8 bits
Scan type                                : Interlaced
Scan type, store method                  : Separated fields
Scan order                               : Top Field First
Bits/(Pixel*Frame)                       : 0.206
Stream size                              : 1.02 GiB (90%)
Default                                  : No
Forced                                   : No
Color range                              : Limited
Color primaries                          : BT.601 PAL
Transfer characteristics                 : BT.470 System B, BT.470 System G
Matrix coefficients                      : BT.601
Audio
ID                                       : 2
Format                                   : MPEG Audio
Format version                           : Version 1
Format profile                           : Layer 2
Codec ID                                 : A_MPEG/L2
Codec ID/Hint                            : MP2
Duration                                 : 1 h 8 min
Bit rate mode                            : Constant
Bit rate                                 : 192 kb/s
Channel(s)                               : 2 channels
Sampling rate                            : 48.0 kHz
Compression mode                         : Lossy
Stream size                              : 94.3 MiB (8%)
Language                                 : Russian
Default                                  : Yes
Forced                                   : No
Код: Выделить всё
General
Unique ID                                : 893993997782126015203043112735701892 (0xAC2D4EA1302628EB026D26984F7B84)
Complete name                            : D:\Work\Video\Обыкновенное чудо\Обыкновенное чудо. Серия 2.mkv
Format                                   : Matroska
Format version                           : Version 2
File size                                : 1.23 GiB
Duration                                 : 1 h 8 min
Overall bit rate                         : 2 550 kb/s
Writing application                      : Lavf54.63.104
Writing library                          : Lavf54.63.104
Video
ID                                       : 1
Format                                   : AVC
Format/Info                              : Advanced Video Codec
Format profile                           : High@L3
Format settings, CABAC                   : Yes
Format settings, ReFrames                : 4 frames
Codec ID                                 : V_MPEG4/ISO/AVC
Duration                                 : 1 h 8 min
Bit rate                                 : 2 307 kb/s
Width                                    : 720 pixels
Height                                   : 576 pixels
Display aspect ratio                     : 4:3
Original display aspect ratio            : 4:3
Frame rate mode                          : Constant
Frame rate                               : 25.000 FPS
Standard                                 : Component
Color space                              : YUV
Chroma subsampling                       : 4:2:0
Bit depth                                : 8 bits
Scan type                                : Interlaced
Scan type, store method                  : Separated fields
Scan order                               : Top Field First
Bits/(Pixel*Frame)                       : 0.223
Stream size                              : 1.11 GiB (90%)
Default                                  : No
Forced                                   : No
Color range                              : Limited
Color primaries                          : BT.601 PAL
Transfer characteristics                 : BT.470 System B, BT.470 System G
Matrix coefficients                      : BT.601
Audio
ID                                       : 2
Format                                   : MPEG Audio
Format version                           : Version 1
Format profile                           : Layer 2
Codec ID                                 : A_MPEG/L2
Codec ID/Hint                            : MP2
Duration                                 : 1 h 8 min
Bit rate mode                            : Constant
Bit rate                                 : 192 kb/s
Channel(s)                               : 2 channels
Sampling rate                            : 48.0 kHz
Compression mode                         : Lossy
Stream size                              : 94.5 MiB (8%)
Language                                 : Russian
Default                                  : Yes
Forced                                   : No