Новости BBC на Дожде / BBC News (январь 2018 года) [2018, информационная программа, SATRip] 4 выпуска

 
 Статистика раздачи 
Размер: 761.19 МБ   |  Зарегистрирован: 12 янв 2018, 20:24   |   .torrent скачан: 0 раз
Сидеров: 1  [ 0 байт/сек ]     Личеров: 0  [ 0 байт/сек ]  
  

Новости BBC на Дожде / BBC News (январь 2018 года) [2018, информационная программа, SATRip] 4 выпуска

Сообщение Nakazhu » 12 янв 2018, 20:24

Новости BBC на Дожде / BBC News (январь 2018 года)
Дата/Год выпуска: 2018
Страна: Великобритания
Жанр: информационная программа
Продолжительность: 4x26 мин.
Перевод: Не требуется
Русские субтитры: нет
Оригинальная аудиодорожка: русский
Ведущий: Олег Антоненко
Телеканал: ДождьОписание: Русская служба Би-би-си в эфире телеканала "Дождь". Дважды в день британские журналисты готовят специально для нашего телеканала сюжеты обо всем, что происходит в России и мире. Эти выпуски — это чисто английский взгляд на события. В программе вы можете увидеть, каким британцы видят настоящее и будущее: политики, экономики, социального развития общества, науки и техники. Подключись к миру с Русской службой Би-би-си: по будням в 16:05 и в 19:00. Следите за анонсами программ в твиттере — @tvrain и @bbcrussian.Сэмпл: https://www.sendspace.com/file/4jczvc
качество: SATRip
формат: AVI
Видео: Xvid 720x400 (16:9) ~896kbps 25fps
Аудио: MP3 128kbps 48kHz 1ch
1. 9 января 2018 года (19:00).
2. 10 января 2018 года (19:00).
3. 11 января 2018 года (19:00).
4. 12 января 2018 года (19:00).
Код: Выделить всё
General
Complete name               : F:\Мои раздачи\Новости\2018\BBC News\BBC News. Январь 2018\[2018-01-09 19-00] BBC News.avi
Format                      : AVI
Format/Info                 : Audio Video Interleave
File size                   : 192 MiB
Duration                    : 25 min 57 s
Overall bit rate            : 1 032 kb/s
Video
ID                          : 0
Format                      : MPEG-4 Visual
Format profile              : Advanced Simple@L5
Format settings, BVOP       : 2
Format settings, QPel       : No
Format settings, GMC        : No warppoints
Format settings, Matrix     : Default (H.263)
Codec ID                    : XVID
Codec ID/Hint               : XviD
Duration                    : 25 min 57 s
Bit rate                    : 894 kb/s
Width                       : 720 pixels
Height                      : 400 pixels
Display aspect ratio        : 16:9
Frame rate                  : 25.000 FPS
Color space                 : YUV
Chroma subsampling          : 4:2:0
Bit depth                   : 8 bits
Scan type                   : Progressive
Compression mode            : Lossy
Bits/(Pixel*Frame)          : 0.124
Stream size                 : 166 MiB (87%)
Writing library             : XviD 73
Audio
ID                          : 1
Format                      : MPEG Audio
Format version              : Version 1
Format profile              : Layer 3
Codec ID                    : 55
Codec ID/Hint               : MP3
Duration                    : 25 min 57 s
Bit rate mode               : Constant
Bit rate                    : 128 kb/s
Channel(s)                  : 1 channel
Sampling rate               : 48.0 kHz
Compression mode            : Lossy
Stream size                 : 23.8 MiB (12%)
Alignment                   : Split accross interleaves
Interleave, duration        : 40  ms (1.00 video frame)
Interleave, preload duratio : 500  ms
Внимание! Раздача ведётся путём добавления новых выпусков; при каждом добавлении создаётся новый торрент. Чтобы начать докачку нового выпуска, пользователям необходимо сделать следующее:
(1) остановить скачивание,
(2) удалить старый торрент у себя из клиента (старые серии удалять не надо),
(3) скачать новый торрент и запустить его у себя в клиенте вместо старого, при этом указать клиенту путь в старую папку куда и должно происходить скачивание новых выпусков.
Ваш клиент при этом должен произвести хеширование (проверку) старой папки (если не производит сам - помогите ему сделать это). В результате он будет докачивать только те выпуски, которых у Вас ещё нет. Старые выпуски при этом не удаляются, а продолжают раздаваться!
Eсли Вы уже удалили старые выпуски, то предотвратить их повторную закачку можно, сняв галочки в соответствующих местах при запуске нового торрента. По возможности, желательно не удалять старые выпуски как можно дольше, чтобы релизёр не только продолжал раздавать старые выпуски, но и смог сконцентрироваться на новых.
 
Не забывайте говорить Спасибо. Не уходите с раздачи!   
Торрент: Зарегистрирован [12 янв 2018, 20:24] Для скачивания .torrent
необходима регистрация
Или скачать с помощью
MediaGet
Статус:
Проверен
 
.torrent скачан: 0 раз
Хэш: 0a06beb7841440c9a00434dad5bd7e14175c3283
Размер: 761.19 МБ (798 161 614 байт)
Стать Автором раздачи
 
 
Раздал: 0 байт
Скачал: 0 байт
Ратио: Inf.
Сообщения: 380173
Зарегистрирован: 17 апр 2014, 13:57


  • Похожие торренты
    Ответы
    Просмотры
    Последнее сообщение

Вернуться в Документальные фильмы и телепередачи

Ресурс не предоставляет электронные версии произведений, а занимается лишь коллекционированием и каталогизацией ссылок, присылаемых и публикуемых на форуме нашими читателями. Если вы являетесь правообладателем какого-либо представленного материала и не желаете чтобы ссылка на него находилась в нашем каталоге, свяжитесь с нами и мы незамедлительно удалим её. Файлы для обмена на трекере предоставлены пользователями сайта, и администрация не несёт ответственности за их содержание. Просьба не заливать файлы, защищенные авторскими правами, а также файлы нелегального содержания!
cron