ТСН / Телевізійна Служба Новин / Выпуски за январь [2018, Информация, публицистика, репортаж, SATRip] 11 выпусков

 
 Статистика раздачи 
Размер: 3.54 ГБ   |  Зарегистрирован: 12 янв 2018, 00:18   |   .torrent скачан: 0 раз
Сидеров: 1  [ 0 байт/сек ]     Личеров: 0  [ 0 байт/сек ]  
  

ТСН / Телевізійна Служба Новин / Выпуски за январь [2018, Информация, публицистика, репортаж, SATRip] 11 выпусков

Сообщение Nakazhu » 12 янв 2018, 00:18

ТСН / Телевізійна Служба Новин
за январь 2018 года

11 января в 23:05 добавлен выпуск за 11 января,
перекачайте торрент-файл, пожалуйста
Все выпуски
Год выпуска: 2018
Страна: Украина
Жанр: Информационная программа
Ведущие: Алла Мазур, Наталья Мосейчук, Лидия Таран, Юлия Бориско
Язык: Украинский, русский
Описание:
Основной выпуск «ТСН» - это актуальные и оперативные новости о событиях в Украине и мире.
Вас ждут только важные и интересные факты.
Выход в эфир: на "1+1" с понедельника по субботу, в 19.30.
Продолжительность: ~ 00:50:00
---
«ТСН. Тиждень» - это актуальные комментарии и гости студии, обзор главных событий в стране и мире за прошлую неделю, острые вопросы к главным действующим лицам, мнение авторитетных экспертов и аналитические прогнозы.
Выход в эфир: на "1+1" в воскресенье, в 19.30.
Продолжительность: ~ 01:20:00
1) Выпуск за 1 января:
Убийство правозащитницы, день рождения Бандеры, постновогодний синдром и прочее...
- - - - -
2) Выпуск за 2 января:
Украденный символ года, европейский обмен территориями, страна елочных кладбищ и прочее...
- - - - -
3) Выпуск за 3 января:
Ночная прогулка двухлетнего ребенка, жестокое избиение студента, спасение собаки и прочее...
- - - - -
4) Выпуск за 4 января:
Вспышка гепатита в Николаеве, избитый ребенок в Виннице, перезахоронения католических монахинь в Ровенской области и другое...
- - - - -
5) Выпуск за 5 января:
Новые подробности убийства Ноздровськой, задержание сепаратистского чиновника из Крыма, отказ московского попа отпевать погибшего ребенка и другое...
- - - - -
6) Выпуск за 6 января:
Столкновение самолетов, протест принцев, кутья в зоне АТО и другое...
- - - - -
7) Выпуск за 7 января:
Колядки на передовой, похолодание в Украине, убийство в Киеве и прочее...
- - - - -
8) Выпуск за 8 января:
Задержание убийцы юристки, российские корабли в Ла-Манше, посылки по-новому и другое...
- - - - -
9) Выпуск за 9 января:
Дело правозащитницы, вспышка кори, жестокие развлечения подростков и другое...
- - - - -
10) Выпуск за 10 января:
Сенсационное заявление подозреваемого в убийстве Ноздровськой, ужвчное убийство в спальном районе Киева, расследования "Аль-Джазиры" о сотрудничестве компании Гонтаревой и Януковича и другое...
- - - - -
11) Выпуск за 11 января:
Вспышка кори в Украине, трансгендер на обложке Playboy, угрозы судом для ТСН и другое...
- - - - -

Качество: SATRip
Формат: AVI
Видео кодек: XviD _ Аудио кодек: MP3
Видео: 720x400 (16:9), 25 fps, XviD build 50, 896 kbps avg, 0.124 bit/pixel
Аудио: 48.0 kHz, MPEG Layer 3, 1 ch, 128.00 kbps
Код: Выделить всё
General
Complete name               : F:\Мои раздачи\Новости\2018\ТСН\TSN_1+1.(2018_01)\[2018-01-01 19-30] ТСН.avi
Format                      : AVI
Format/Info                 : Audio Video Interleave
File size                   : 334 MiB
Duration                    : 45 min 12 s
Overall bit rate            : 1 033 kb/s
Video
ID                          : 0
Format                      : MPEG-4 Visual
Format profile              : Advanced Simple@L5
Format settings, BVOP       : 2
Format settings, QPel       : No
Format settings, GMC        : No warppoints
Format settings, Matrix     : Default (H.263)
Codec ID                    : XVID
Codec ID/Hint               : XviD
Duration                    : 45 min 12 s
Bit rate                    : 895 kb/s
Width                       : 720 pixels
Height                      : 400 pixels
Display aspect ratio        : 16:9
Frame rate                  : 25.000 FPS
Color space                 : YUV
Chroma subsampling          : 4:2:0
Bit depth                   : 8 bits
Scan type                   : Progressive
Compression mode            : Lossy
Bits/(Pixel*Frame)          : 0.124
Stream size                 : 290 MiB (87%)
Writing library             : XviD 73
Audio
ID                          : 1
Format                      : MPEG Audio
Format version              : Version 1
Format profile              : Layer 3
Codec ID                    : 55
Codec ID/Hint               : MP3
Duration                    : 45 min 12 s
Bit rate mode               : Constant
Bit rate                    : 128 kb/s
Channel(s)                  : 1 channel
Sampling rate               : 48.0 kHz
Compression mode            : Lossy
Stream size                 : 41.4 MiB (12%)
Alignment                   : Split accross interleaves
Interleave, duration        : 40  ms (1.00 video frame)
Interleave, preload duratio : 500  ms

При каждом добавлении создаётся новый торрент. Чтобы начать докачку нового выпуска, пользователям необходимо сделать следующее:
● остановить скачивание;
● удалить старый торрент у себя из клиента (старые выпуски удалять не надо);
● скачать новый торрент и запустить его у себя в клиенте вместо старого, при этом указать клиенту путь в старую папку куда и должно происходить скачивание новых выпусков;
● ваш клиент при запуске должен произвести хеширование (проверку) старой папки (если не производит сам - помогите ему сделать это), и будет докачивать только те выпуски, которых у вас ещё нет. Старые выпуски при этом не удаляются, а продолжают раздаваться!
● Eсли вы уже удалили старые выпуски, то предотвратить повторную закачку старых выпусков можно, отжав галочку в соответсвующих местах при запуске нового торрента.
Как закачать отдельный файл из торрента или докачать ранее пропущенные файлы торрента!
При закачке сериалов или видео-сборников рекомендую такую схему:
выставляем приоритет первого выпуска Высокий, следующих 1-2-х выпусков - Нормальный, следующих 1-2-х выпусков - Низкий, приоритет остальных пока ставим - Не загружать (пропущен).
По мере выкачки первых выпусков меняем приоритеты последующих. В итоге довольно скоро начинаем смотреть первые выпуски, а остальные пока качаются.

Украинские политические ток-шоу в прямом эфире:
Шустер live (ТРК "Украина", "Первый национальный")
Свобода слова (ICTV)
Большая Политика (ИНТЕР)
РесПублика с Анной Безулик (5 канал)
Вечер с Николаем Княжицким (ТВi)
Черное и белое (TVi)
---
Российские политические ток-шоу в прямом эфире:
Прямой эфир с Савиком Шустером (РБК ТВ)
---
Заседания Совета Безопасности ООН по Украине за март-май 2014 г
Если на раздаче долгое время нет раздающих - пишите мне в личку
 
Не забывайте говорить Спасибо. Не уходите с раздачи!   
Торрент: Зарегистрирован [12 янв 2018, 00:18] Для скачивания .torrent
необходима регистрация
Или скачать с помощью
MediaGet
Статус:
Проверен
 
.torrent скачан: 0 раз
Хэш: 12e6142612cad58299c01d393fd4b1e639c93451
Размер: 3.54 ГБ (3 804 402 262 байт)
Стать Автором раздачи
 
 
Раздал: 0 байт
Скачал: 0 байт
Ратио: Inf.
Сообщения: 439785
Зарегистрирован: 17 апр 2014, 13:57


  • Похожие торренты
    Ответы
    Просмотры
    Последнее сообщение

Вернуться в Документальные фильмы и телепередачи

Ресурс не предоставляет электронные версии произведений, а занимается лишь коллекционированием и каталогизацией ссылок, присылаемых и публикуемых на форуме нашими читателями. Если вы являетесь правообладателем какого-либо представленного материала и не желаете чтобы ссылка на него находилась в нашем каталоге, свяжитесь с нами и мы незамедлительно удалим её. Файлы для обмена на трекере предоставлены пользователями сайта, и администрация не несёт ответственности за их содержание. Просьба не заливать файлы, защищенные авторскими правами, а также файлы нелегального содержания!
cron