Вторая молодость (2017) HDTVRip от Portablius

 
 Статистика раздачи 
Размер: 696.15 МБ   |  Зарегистрирован: 11 янв 2018, 17:19   |   .torrent скачан: 0 раз
Сидеров: 1  [ 0 байт/сек ]     Личеров: 1  [ 0 байт/сек ]  
  

Вторая молодость (2017) HDTVRip от Portablius

Сообщение Lester » 11 янв 2018, 17:19

Информация о фильме
Оригинальное название: Вторая молодость
Год выхода: 2017
Жанр: Мелодрама
Режиссер: Максим Субботин
В ролях: Алёна Хмельницкая, Евгений Шириков, Дмитрий Ячевский, Прохор Дубравин, Марина Митрофанова, Галина Кашковская, Александр Песков, Анастасия Дубровина, Ольга Богомазова, Илья Сологуб

О фильме: Проработав двадцать лет в галерее, Ирина (Алена Хмельницкая), наконец, решает уволиться, чтобы посвятить себя дому и семье. Однако вскоре выясняется, что ни мужу, ни взрослым дочерям ее заботы не нужны. Ее муж Борис (Дмитрий Ячевский) - владелец строительного бизнеса, с утра до ночи пропадает на стройке, старшая дочь живет с семьей за границей, а младшая Юля (Марина Митрофанова) увлечена романом с женатым мужчиной (Прохор Дубравин). Ира пытается отговорить дочь от этой связи, но та просит мать не лезть в ее жизнь. Чтобы занять себя, Ирина идет учиться в школу живописи. В нее влюбляется молодой и талантливой педагог и художник Максим (Евгений Шириков). Вопреки значительной разнице в возрасте и другим серьезным обстоятельствам у них начинается роман. Ирина корит себя за легкомыслие, ведь все это может разрушить ее семью, но ничего не может поделать… в сорок пять лет у нее начинается вторая молодость.



Страна: Россия
Студия: BUBBLEGUM PRODUCTION, Калейдоскоп Фильм
Продолжительность: 01:39:46
Перевод: Не Требуется
Субтитры: Нет

Файл
Кодек: XviD
Качество: HDTVRip
Видео: 640x352 (1.82:1), 25 fps, XviD build 73 ~837 kbps avg, 0.15 bit/pixel
Звук: 48 kHz, MPEG Layer 3, 2 ch, ~128.00 kbps avg

General
Complete name : Vtoraya.Molodost.2017.HDTVRip.ot.Portablius.avi
Format : AVI
Format/Info : Audio Video Interleave
File size : 696 MiB
Duration : 1 h 39 min
Overall bit rate : 976 kb/s
Writing application : VirtualDubMod 1.5.10.3 | www.virtualdub-fr.org || (build 2550/release)
Writing library : VirtualDubMod build 2550/release

Video
ID : 0
Format : MPEG-4 Visual
Format profile : Advanced Simple@L5
Format settings, BVOP : 1
Format settings, QPel : No
Format settings, GMC : No warppoints
Format settings, Matrix : Custom
Codec ID : XVID
Codec ID/Hint : XviD
Duration : 1 h 39 min
Bit rate : 838 kb/s
Width : 640 pixels
Height : 352 pixels
Display aspect ratio : 16:9
Frame rate : 25.000 FPS
Color space : YUV
Chroma subsampling : 4:2:0
Bit depth : 8 bits
Scan type : Progressive
Compression mode : Lossy
Bits/(Pixel*Frame) : 0.149
Stream size : 598 MiB (86%)
Writing library : XviD 73

Audio
ID : 1
Format : MPEG Audio
Format version : Version 1
Format profile : Layer 3
Codec ID : 55
Codec ID/Hint : MP3
Duration : 1 h 39 min
Bit rate mode : Constant
Bit rate : 128 kb/s
Channel(s) : 2 channels
Sampling rate : 48.0 kHz
Compression mode : Lossy
Stream size : 91.3 MiB (13%)
Alignment : Aligned on interleaves
Interleave, duration : 40 ms (1.00 video frame)
Interleave, preload duratio : 504 ms
Writing library : LAME3.99r
Encoding settings : -m s -V 4 -q 2 -lowpass 17 -b 128

 
Не забывайте говорить Спасибо. Не уходите с раздачи!   
Торрент: Зарегистрирован [11 янв 2018, 17:19] Для скачивания .torrent
необходима регистрация
Или скачать с помощью
MediaGet
Статус:
Проверен
 
.torrent скачан: 0 раз
Хэш: 1a866c3718a63aea65ca710bb06057b4893ca409
Размер: 696.15 МБ (729 970 688 байт)
Стать Автором раздачи
 
 
Раздал: 100 ГБ
Скачал: 0 байт
Ратио: Seed.
Сообщения: 113140
Зарегистрирован: 09 апр 2015, 23:00


  • Похожие торренты
    Ответы
    Просмотры
    Последнее сообщение

Вернуться в Отечественное кино

Ресурс не предоставляет электронные версии произведений, а занимается лишь коллекционированием и каталогизацией ссылок, присылаемых и публикуемых на форуме нашими читателями. Если вы являетесь правообладателем какого-либо представленного материала и не желаете чтобы ссылка на него находилась в нашем каталоге, свяжитесь с нами и мы незамедлительно удалим её. Файлы для обмена на трекере предоставлены пользователями сайта, и администрация не несёт ответственности за их содержание. Просьба не заливать файлы, защищенные авторскими правами, а также файлы нелегального содержания!
cron