Повелитель (ТВ-2) / Overlord II [TV] [01 из 13] [Без хардсаба] [RUS(int), JAP+SUB] [2018, Экшен, Приключения, Фэнтези, HDTVRip] [720p]

Только для раздач с озвучкой имеющей нарекания или неизвестной в рамках sun-torrents.name
 
 Статистика раздачи 
Размер: 364.51 МБ   |  Зарегистрирован: 11 янв 2018, 00:58   |   .torrent скачан: 0 раз
Сидеров: 1  [ 0 байт/сек ]     Личеров: 0  [ 0 байт/сек ]  
  

Повелитель (ТВ-2) / Overlord II [TV] [01 из 13] [Без хардсаба] [RUS(int), JAP+SUB] [2018, Экшен, Приключения, Фэнтези, HDTVRip] [720p]

Сообщение Nakazhu » 11 янв 2018, 00:58


Страна: Япония
Год выпуска: 2018
Жанр: Экшен, Приключения, Фэнтези
Тип: TV
Продолжительность: 13 эп., ~24 мин.
Режиссер: Наоюки Ито
Студия:
Озвучка: Многоголосая / AniLibria | SAMPLE
—Dejz(муж)
—WhiteCroW(муж)
—Itashi(жен)
—Cleo-chan(жен)
Перевод: Sovet Romantica
—shika2009
—BaSiLL
—Akira
—Atai

Описание: Редко удаётся найти отличную онлайн-игру, в которой тебя устраивало бы абсолютно всё. Но пользователям "Иггдрасиль” несказанно повезло. Правда счастье их длилось недолго, ведь разработчики надумали закрыть эту игру. Лидер одной из самых могущественных гильдий по имени Момонга не хотел, чтобы игру закрывали и решил сидеть там до самого конца. Его желание отчасти сбылось, в час прощания с онлайн-миром Момонгу перенесло в реальный мир "Иггдрасиль”. Играй, сколько влезет. И Момонга бросился изучать, чем же этот мир отличается от онлайн-игры.
Однажды, во время очередной миссии, одной из верных NPC Момонги по имени Шалтия промыли мозги, и она решила убить своего бывшего хозяина. Битва с ней далась ему крайне нелегко, но в итоге он сумел перехитрить Шалтию и уничтожить её. В своём замке он возрождает девушку обратно в NPC, и она вновь обретает ясность ума. Теперь нужно выяснить, что за злой умысел стоял за её действиями, и кто дёргал за ниточки марионетки, пытаясь устранить могущественного соперника?
Информационные ссылки:: AniDB | MyAnimeList | World Art
Качество: HDTVRip
Тип релиза: Без хардсаба
Формат видео: MKV
Автор рипа: Ohys-Raws
Видео: AVC, 8 bits, 1280x720, ~1700 kbps, 23.976 fps
Аудио: RUS, AAC, 48000 Hz, 192 kbps, 2 ch (в составе контейнера)
Аудио 2: JAP, AAC, 192 kbps, 48000 Hz, 2 ch
Субтитры: RUS, ASS (надписи + полные, в составе контейнера)

Код: Выделить всё
Формат                                   : Matroska
Версия формата                           : Version 4 / Version 2
Размер файла                             : 365 Мбайт
Продолжительность                        : 25 м. 31 с.
Общий поток                              : 1997 Кбит/сек
Дата кодирования                         : UTC 2018-01-10 03:20:39
Программа кодирования                    : mkvmerge v19.0.0 ('Brave Captain') 64-bit
Библиотека кодирования                   : libebml v1.3.5 + libmatroska v1.4.8
Видео
Идентификатор                            : 1
Формат                                   : AVC
Формат/Информация                        : Advanced Video Codec
Профиль формата                          : Main@L4.1
Настройки формата                        : CABAC / 4 Ref Frames
Параметр CABAC формата                   : Да
Параметр RefFrames формата               : 4 кадра
Идентификатор кодека                     : V_MPEG4/ISO/AVC
Продолжительность                        : 25 м. 31 с.
Битрейт                                  : 1611 Кбит/сек
Ширина                                   : 1280 пикселей
Высота                                   : 720 пикселей
Соотношение сторон                       : 16:9
Режим частоты кадров                     : Постоянный
Частота кадров                           : 23,976 (24000/1001) кадра/сек
Цветовое пространство                    : YUV
Субдискретизация насыщенности            : 4:2:0
Битовая глубина                          : 8 бит
Тип развёртки                            : Прогрессивная
Бит/(Пиксели*Кадры)                      : 0.073
Размер потока                            : 294 Мбайт (81%)
Библиотека кодирования                   : x264 core 155 r2867+74 66b5600 t_mod_Custom_2 [8-bit@all X86_64]
Настройки программы                      : cabac=1 / ref=3 / deblock=1:0:0 / analyse=0x1:0x111 / me=hex / subme=7 / psy=1 / fade_compensate=0.00 / psy_rd=1.00:0.00 / mixed_ref=1 / me_range=16 / chroma_me=1 / trellis=1 / 8x8dct=0 / cqm=0 / deadzone=21,11 / fast_pskip=1 / chroma_qp_offset=-2 / threads=18 / lookahead_threads=3 / sliced_threads=0 / nr=0 / decimate=1 / interlaced=0 / bluray_compat=0 / constrained_intra=0 / fgo=0 / bframes=3 / b_pyramid=2 / b_adapt=1 / b_bias=0 / direct=1 / weightb=1 / open_gop=0 / weightp=2 / keyint=240 / keyint_min=1 / scenecut=40 / intra_refresh=0 / rc_lookahead=40 / rc=crf / mbtree=1 / crf=20.0000 / qcomp=0.60 / qpmin=0:0:0 / qpmax=69:69:69 / qpstep=4 / ip_ratio=1.40 / aq=1:1.50 / aq-sensitivity=10.00 / aq-factor=1.00:1.00:1.00 / aq2=0 / aq3=0
Язык                                     : Japanese
Default                                  : Да
Forced                                   : Нет
Цветовой диапазон                        : Limited
Основные цвета                           : BT.709
Характеристики трансфера                 : BT.709
Коэффициенты матрицы                     : BT.709
Аудио #1
Идентификатор                            : 2
Формат                                   : AAC
Формат/Информация                        : Advanced Audio Codec
Профиль формата                          : LC
Идентификатор кодека                     : A_AAC-2
Продолжительность                        : 25 м. 31 с.
Битрейт                                  : 192 Кбит/сек
Каналы                                   : 2 канала
Расположение каналов                     : Front: L R
Частота                                  : 48,0 КГц
Частота кадров                           : 46,875 кадров/сек (1024 SPF)
Метод сжатия                             : С потерями
Размер потока                            : 35,1 Мбайт (10%)
Заголовок                                : Dezj & Itashi & WhiteCrow & Cleo-chan
Язык                                     : Russian
Default                                  : Да
Forced                                   : Да
Аудио #2
Идентификатор                            : 3
Формат                                   : AAC
Формат/Информация                        : Advanced Audio Codec
Профиль формата                          : LC
Идентификатор кодека                     : A_AAC-2
Продолжительность                        : 25 м. 31 с.
Битрейт                                  : 192 Кбит/сек
Каналы                                   : 2 канала
Расположение каналов                     : Front: L R
Частота                                  : 48,0 КГц
Частота кадров                           : 46,875 кадров/сек (1024 SPF)
Метод сжатия                             : С потерями
Размер потока                            : 34,8 Мбайт (10%)
Заголовок                                : Original
Язык                                     : Japanese
Default                                  : Нет
Forced                                   : Нет
Текст #1
Идентификатор                            : 4
Формат                                   : ASS
Идентификатор кодека                     : S_TEXT/ASS
Идентификатор кодека/Информация          : Advanced Sub Station Alpha
Продолжительность                        : 5 с. 980 мс.
Битрейт                                  : 353 бит/сек
ElementCount                             : 2
Метод сжатия                             : Без потерь
Размер потока                            : 264 байт (0%)
Заголовок                                : Надписи
Язык                                     : Russian
Default                                  : Да
Forced                                   : Да
Текст #2
Идентификатор                            : 5
Формат                                   : ASS
Идентификатор кодека                     : S_TEXT/ASS
Идентификатор кодека/Информация          : Advanced Sub Station Alpha
Продолжительность                        : 21 м. 7 с.
Битрейт                                  : 201 бит/сек
ElementCount                             : 346
Метод сжатия                             : Без потерь
Размер потока                            : 31,2 Кбайт (0%)
Заголовок                                : Субтиры
Язык                                     : Russian
Default                                  : Нет
Forced                                   : Нет

01. The Dawn of Despair
02. ...
03. ...
04. ...
05. ...
06. ...
07. ...
08. ...
09. ...
10. ...
11. ...
12. ...

Релиз перезалит под нормальный рип + субтитры и правки в озвучке, перекачайте торрент-файл!
 
Не забывайте говорить Спасибо. Не уходите с раздачи!   
Торрент: Зарегистрирован [11 янв 2018, 00:58] Для скачивания .torrent
необходима регистрация
Или скачать с помощью
MediaGet
Статус:
Проверен
 
.torrent скачан: 0 раз
Хэш: 94e2ba0edf643536a1d07fff9a37667e0755e0d9
Размер: 364.51 МБ (382 218 800 байт)
Стать Автором раздачи
 
 
Раздал: 0 байт
Скачал: 0 байт
Ратио: Inf.
Сообщения: 487468
Зарегистрирован: 17 апр 2014, 13:57


  • Похожие торренты
    Ответы
    Просмотры
    Последнее сообщение

Вернуться в Аниме (QC подраздел)

Ресурс не предоставляет электронные версии произведений, а занимается лишь коллекционированием и каталогизацией ссылок, присылаемых и публикуемых на форуме нашими читателями. Если вы являетесь правообладателем какого-либо представленного материала и не желаете чтобы ссылка на него находилась в нашем каталоге, свяжитесь с нами и мы незамедлительно удалим её. Файлы для обмена на трекере предоставлены пользователями сайта, и администрация не несёт ответственности за их содержание. Просьба не заливать файлы, защищенные авторскими правами, а также файлы нелегального содержания!
cron