Легенды мирового кино (3 часть) (73 выпускa) (Андрей Истратов) [2015-2017, Документальный цикл, биографический, DVB]

 
 Статистика раздачи 
Размер: 68.35 ГБ   |  Зарегистрирован: 10 янв 2018, 10:42   |   .torrent скачан: 0 раз
Сидеров: 1  [ 0 байт/сек ]     Личеров: 0  [ 0 байт/сек ]  
  

Легенды мирового кино (3 часть) (73 выпускa) (Андрей Истратов) [2015-2017, Документальный цикл, биографический, DVB]

Сообщение Nakazhu » 10 янв 2018, 10:42

Легенды мирового кино (3 часть)
Дата/Год выпуска: 2015-2017
Страна: Россия, ООО Телекомпания "Гамаюн"
Жанр: Документальный цикл, биографический
Продолжительность: 00:26:01
Перевод: Не требуется
Русские субтитры: нет
Рип: dean10,
Оригинальная аудиодорожка: русский
Режиссер: Андрей Истратов
Телеканал: Культура
Описание:

Разные истории - на съемочной площадке, истории любви, смешные и трагические случаи - становятся основой рассказа о звездах кино. Из мозаики подробностей биографий выстраивается легенда. Программа о судьбах людей, чьи имена навсегда вошли в историю мирового кинематографа. Программа выдвигалась на соискание премии ТЭФИ-2007. В 2010 году режиссер и автор сценариев проекта Андрей Истратов был удостоен приза XIV кинофестиваля Госфильмофонда России "Белые столбы" за лучшую программу о кино.

10.01.2018 _ добавил:
перезаливаем
Доп. информация: Ведущий: с 16 января 2005 по 26 июня 2016 года - Константин Карасик, Со 2 октября 2016 года выходит похожая передача «Легенды кино» с Владиславом Ветровым, созданием которой занимается та же команда, что и над прошлым документальным циклом.
Александров Григорий
Артмане Вия (2017)
Астер Фред
Банионис Донатас
Белов Юрий
Бирман Серафима
Блюме Рената
Борис Барнет
Броневой Леонид
Будрайтис Юозас (2016)
Вертов Дзига
Грибов Алексей
Гриффит Дэвид
Гурченко Людмила
Даль Олег
Демьяненко Александр
Довженко Александр (2017)
Дуглас Фэрбенкс
Дунаевский Исаак
Жирардо Анни (2016)
Касаткина Людмила (2016)
Келли Грейс
Китон Бастер
Козинцев Григорий
Крамаров Савелий (2016)
Кубрик Стэнли
Кэгни Джеймс
Леммон Джек (2017)
Лорен Софи
Лэнгдон Гарри
Люмет Сидни
Маньяни Анна
Мастроянни Марчелло
Мельес Жорж
Миронов Андрей
Мозжухин Иван
Монро Мэрилин
Назаров Юрий (2017)
Назимова Алла
Николсон Джек
Норман Мэйбл
Оболенский Леонид
Озеров Юрий
Первиэнс Эдна
Пикфорд Мэри
Полока Геннадий
Рид Дин
Ромм Михаил
Рутткаи Ева (2017)
Свенсон Глория
Сеннет Мак
Серафима Бирман
Смирнов Алексей (2017)
Смирнова Лидия
Стриженов Олег
Торрес Лолита
Шпаликов Геннадий
Фальк Питер
Фёдорова Зоя
Филип Жерар
Филип Жерар (2017)
Финч Питер (2017)
Фогель Владимир
Фэрбенкс Дуглас
Фюнес Луи де
Харитонов Леонид
Холодная Вера
Хуциев Марлен (2016)
Хьюз Говард
Целиковская Людмила
Чаплин Чарльз
Шпаликов Геннадий
Эйзенштейн Сергей
Экберг Анита
Юматов Георгий
Ярвет Юри (2016)
Сэмпл: http://multi-up.com/1033321
качество: DVB
формат: MPEG-PS
Видео: MPEG 2, 720x576 (4:3), 25 fps, 5 323 Kbps
Аудио: MP2, 48 kHz, 2 ch, 256 Kbps
Код: Выделить всё
General
Complete name                            : Z:\Легенды мирового кино 3\Александров Григорий.mpg
Format                                   : MPEG-PS
File size                                : 1.03 GiB
Duration                                 : 25mn 58s
Overall bit rate mode                    : Variable
Overall bit rate                         : 5 692 Kbps
Video
ID                                       : 224 (0xE0)
Format                                   : MPEG Video
Format version                           : Version 2
Format profile                           : Main@Main
Format settings, BVOP                    : Yes
Format settings, Matrix                  : Custom
Format settings, GOP                     : M=3, N=15
Format settings, picture structure       : Frame
Duration                                 : 25mn 58s
Bit rate mode                            : Variable
Bit rate                                 : 5 323 Kbps
Maximum bit rate                         : 15.0 Mbps
Width                                    : 720 pixels
Height                                   : 576 pixels
Display aspect ratio                     : 4:3
Frame rate                               : 25.000 fps
Standard                                 : PAL
Color space                              : YUV
Chroma subsampling                       : 4:2:0
Bit depth                                : 8 bits
Scan type                                : Interlaced
Scan order                               : Top Field First
Compression mode                         : Lossy
Bits/(Pixel*Frame)                       : 0.513
Time code of first frame                 : 00:00:00:00
Time code source                         : Group of pictures header
GOP, Open/Closed                         : Open
GOP, Open/Closed of first frame          : Closed
Stream size                              : 989 MiB (94%)
Audio
ID                                       : 192 (0xC0)
Format                                   : MPEG Audio
Format version                           : Version 1
Format profile                           : Layer 2
Duration                                 : 25mn 58s
Bit rate mode                            : Constant
Bit rate                                 : 256 Kbps
Channel(s)                               : 2 channels
Sampling rate                            : 48.0 KHz
Compression mode                         : Lossy
Stream size                              : 47.5 MiB (4%)
Внимание! Раздача ведётся путём добавления новых серий; при каждом добавлении создётся новый торрент. Чтобы начать докачку новой серии, пользователям необходимо сделать следующее:
(1) остановить скачивание,
(2) удалить старый торрент у себя из клиента (старые серии удалять не надо),
(3) скачать новый торрент и запустить его у себя в клиенте вместо старого, при этом указать клиенту путь в старую папку куда и должно происходить скачивание новых серий.
Ваш клиент при этом должен произвести хеширование (проверку) старой папки (если не производит сам - помогите ему сделать это), и будет докачивать только те серии которых у вас
ещё нет. Старые серии при этом не удаляются, а продолжают раздаваться!
 
Не забывайте говорить Спасибо. Не уходите с раздачи!   
Торрент: Зарегистрирован [10 янв 2018, 10:42] Для скачивания .torrent
необходима регистрация
Или скачать с помощью
MediaGet
Статус:
Проверен
 
.torrent скачан: 0 раз
Хэш: a9190048b32b2adfa57765aa99602074cea634b5
Размер: 68.35 ГБ (73 388 720 128 байт)
Стать Автором раздачи
 
 
Раздал: 0 байт
Скачал: 0 байт
Ратио: Inf.
Сообщения: 487468
Зарегистрирован: 17 апр 2014, 13:57


  • Похожие торренты
    Ответы
    Просмотры
    Последнее сообщение

Вернуться в Документальные фильмы и телепередачи о кино и мультипликации (в том числе биографии)

Ресурс не предоставляет электронные версии произведений, а занимается лишь коллекционированием и каталогизацией ссылок, присылаемых и публикуемых на форуме нашими читателями. Если вы являетесь правообладателем какого-либо представленного материала и не желаете чтобы ссылка на него находилась в нашем каталоге, свяжитесь с нами и мы незамедлительно удалим её. Файлы для обмена на трекере предоставлены пользователями сайта, и администрация не несёт ответственности за их содержание. Просьба не заливать файлы, защищенные авторскими правами, а также файлы нелегального содержания!
cron