Девушка с косой (2017) WEB-DL 1080p | iTunes

 
 Статистика раздачи 
Размер: 3.39 ГБ   |  Зарегистрирован: 10 янв 2018, 03:26   |   .torrent скачан: 1 раз
Сидеров: 1  [ 0 байт/сек ]     Личеров: 0  [ 0 байт/сек ]  
  

Девушка с косой (2017) WEB-DL 1080p | iTunes

Сообщение Lester » 10 янв 2018, 03:26

Информация о фильме
Оригинальное название: Девушка с косой
Год выхода: 2017
Жанр: комедия
Режиссер: Ольга Попова
В ролях: Александра Урсуляк, Виктор Добронравов, Федор Добронравов, Ирина Чериченко, Марк Богатырев, Олег Гаас, Полина Ауг, Нина Дворжецкая, Дарья Мингазетдинова, Полина Стремоусова

О фильме:
Успеют ли жители дома N48 по улице Заморенова, судьба которых переплетается 31 декабря, сделать праздник идеальным и не сыграть в ящик? И за кем по красивой новогодней Москве идет одинокая Девушка с косой?



Страна: Россия
Продолжительность: 01:26:08

Файл
Формат: MKV
Видео: 1920x1080 at 25.000 fps, MPEG-4 AVC, ~5241 kbps avg
Аудио#1: Russian: 48 kHz, AC3, 3/2 (L,C,R,l,r) + LFE ch, ~384.00 kbps avg |iTunes|
Cубтитры: нет

Сэмпл

General
Unique ID : 201016550852825841273500228846956966105 (0x973A612452995129B829CE0FBF89F0D9)
Complete name : Devushka.s.kosoj.2017.1080p.WEB-DL.Rus.mkv
Format : Matroska
Format version : Version 2
File size : 3.39 GiB
Duration : 1 h 26 min
Overall bit rate : 5 627 kb/s
Encoded date : UTC 2018-01-09 21:40:24
Writing application : mkvmerge v8.3.0 ('Over the Horizon') 64bit
Writing library : libebml v1.3.1 + libmatroska v1.4.2

Video
ID : 1
Format : AVC
Format/Info : Advanced Video Codec
Format profile : High@L4
Format settings : CABAC / 4 Ref Frames
Format settings, CABAC : Yes
Format settings, ReFrames : 4 frames
Codec ID : V_MPEG4/ISO/AVC
Duration : 1 h 26 min
Bit rate : 5 241 kb/s
Width : 1 920 pixels
Height : 1 080 pixels
Display aspect ratio : 16:9
Frame rate mode : Constant
Frame rate : 25.000 FPS
Color space : YUV
Chroma subsampling : 4:2:0
Bit depth : 8 bits
Scan type : Progressive
Bits/(Pixel*Frame) : 0.101
Stream size : 3.15 GiB (93%)
Language : English
Default : Yes
Forced : No
Color range : Limited
Color primaries : BT.709
Transfer characteristics : BT.709
Matrix coefficients : BT.709

Audio
ID : 2
Format : AC-3
Format/Info : Audio Coding 3
Codec ID : A_AC3
Duration : 1 h 26 min
Bit rate mode : Constant
Bit rate : 384 kb/s
Channel(s) : 6 channels
Channel positions : Front: L C R, Side: L R, LFE
Sampling rate : 48.0 kHz
Frame rate : 31.250 FPS (1536 SPF)
Bit depth : 16 bits
Compression mode : Lossy
Stream size : 237 MiB (7%)
Language : Russian
Service kind : Complete Main
Default : Yes
Forced : No

Menu
00:00:00.000 : en:Глава 1
00:07:16.080 : en:Глава 2
00:14:42.200 : en:Глава 3
00:22:38.080 : en:Глава 4
00:29:48.280 : en:Глава 5
00:36:59.560 : en:Глава 6
00:44:45.120 : en:Глава 7
00:52:23.520 : en:Глава 8
00:59:55.240 : en:Глава 9
01:08:03.480 : en:Глава 10
01:15:32.000 : en:Глава 11


 
Не забывайте говорить Спасибо. Не уходите с раздачи!   
Торрент: Зарегистрирован [10 янв 2018, 03:26] Для скачивания .torrent
необходима регистрация
Или скачать с помощью
MediaGet
Статус:
Проверен
 
.torrent скачан: 1 раз
Хэш: f24ae19e9323466771231c6402f298465c325a50
Размер: 3.39 ГБ (3 635 636 164 байт)
Стать Автором раздачи
 
 
Раздал: 100 ГБ
Скачал: 0 байт
Ратио: Seed.
Сообщения: 113171
Зарегистрирован: 09 апр 2015, 23:00


  • Похожие торренты
    Ответы
    Просмотры
    Последнее сообщение

Вернуться в Отечественное кино

Ресурс не предоставляет электронные версии произведений, а занимается лишь коллекционированием и каталогизацией ссылок, присылаемых и публикуемых на форуме нашими читателями. Если вы являетесь правообладателем какого-либо представленного материала и не желаете чтобы ссылка на него находилась в нашем каталоге, свяжитесь с нами и мы незамедлительно удалим её. Файлы для обмена на трекере предоставлены пользователями сайта, и администрация не несёт ответственности за их содержание. Просьба не заливать файлы, защищенные авторскими правами, а также файлы нелегального содержания!
cron