Маленький принц (Арунас Жебрюнас) [1966, философская сказка, DVDRip-AVC]

 
 Статистика раздачи 
Размер: 1.27 ГБ   |  Зарегистрирован: 09 янв 2018, 18:55   |   .torrent скачан: 0 раз
Сидеров: 1  [ 0 байт/сек ]     Личеров: 0  [ 0 байт/сек ]  
  

Маленький принц (Арунас Жебрюнас) [1966, философская сказка, DVDRip-AVC]

Сообщение Nakazhu » 09 янв 2018, 18:55

Маленький принц
Жанр: философская сказка
Год выпуска: 1966
Продолжительность: 01:03:45
Режиссёр: Арунас Жебрюнас
В ролях:
Эвальдас Микалюнас, Донатас Банионис, Отар Коберидзе, Иннокентий Смоктуновский (закадровый текст)
Описание:
Экранизация одноименной сказки Антуана де Сент-Экзюпери.
Исходник | Сэмпл | Кинопоиск
Качество видео: DVDRip-AVC, за исходник спасибо kukuy999
Формат видео: MKV
Видео: x264 (High@L4.1); 714@1038x428 25.000 fps; Display aspect ratio: 2.425:1; 2596 Kbps
Аудио: Оригинал: AC-3; 16 bit 48 Khz; 2.0ch 256 Kbps; CBR
avs [info]: 714x428p 16:11 @ 25/1 fps (cfr)
x264 [info]: using SAR=16/11
x264 [info]: using cpu capabilities: MMX2 SSE2Fast SSSE3 SSE4.2
x264 [info]: profile High, level 4.1
x264 [info]: frame I:467 Avg QP:17.03 size: 37503
x264 [info]: frame P:18119 Avg QP:18.26 size: 22924
x264 [info]: frame B:77059 Avg QP:20.24 size: 10491
x264 [info]: consecutive B-frames: 0.7% 0.6% 2.4% 15.9% 19.8% 46.7% 8.9% 3.5% 0.9% 0.5% 0.1%
x264 [info]: mb I I16..4: 9.2% 84.4% 6.4%
x264 [info]: mb P I16..4: 0.3% 30.1% 0.6% P16..4: 30.3% 25.8% 12.5% 0.3% 0.0% skip: 0.1%
x264 [info]: mb B I16..4: 0.0% 3.1% 0.0% B16..8: 42.9% 16.6% 3.8% direct:16.4% skip:17.1% L0:49.1% L1:37.9% BI:13.0%
x264 [info]: 8x8 transform intra:96.7% inter:58.1%
x264 [info]: direct mvs spatial:100.0% temporal:0.0%
x264 [info]: coded y,uvDC,uvAC intra: 99.7% 57.2% 20.0% inter: 60.0% 43.6% 3.1%
x264 [info]: i16 v,h,dc,p: 2% 3% 26% 69%
x264 [info]: i8 v,h,dc,ddl,ddr,vr,hd,vl,hu: 7% 8% 14% 9% 13% 10% 14% 10% 15%
x264 [info]: i4 v,h,dc,ddl,ddr,vr,hd,vl,hu: 10% 8% 3% 8% 16% 13% 18% 10% 14%
x264 [info]: i8c dc,h,v,p: 24% 44% 21% 12%
x264 [info]: Weighted P-Frames: Y:57.9% UV:52.2%
x264 [info]: ref P L0: 34.0% 8.7% 10.7% 8.0% 6.4% 5.8% 4.5% 3.3% 2.8% 2.9% 2.5% 2.5% 2.1% 2.2% 1.9% 1.5%
x264 [info]: ref B L0: 62.5% 9.2% 5.6% 4.1% 3.3% 2.9% 2.3% 1.7% 1.6% 1.6% 1.4% 1.3% 1.2% 0.9% 0.4%
x264 [info]: ref B L1: 95.8% 4.2%
x264 [info]: kb/s:2595.59

General
Unique ID : 180892801652910864847151073538499119748 (0x8816AFB4287825719C2438A6D30F8A84)
Complete name : Маленький принц.1966.mkv
Format : Matroska
Format version : Version 2
File size : 1.27 GiB
Duration : 1 h 3 min
Overall bit rate : 2 853 kb/s
Encoded date : UTC 2018-01-09 13:08:14
Writing application : mkvmerge v7.8.0 ('River Man') 32bit built on Mar 27 2015 16:18:02
Writing library : libebml v1.3.1 + libmatroska v1.4.2
Video
ID : 1
Format : AVC
Format/Info : Advanced Video Codec
Format profile : High@L4.1
Format settings, CABAC : Yes
Format settings, ReFrames : 16 frames
Codec ID : V_MPEG4/ISO/AVC
Duration : 1 h 3 min
Bit rate : 2 541 kb/s
Width : 714 pixels
Height : 428 pixels
Display aspect ratio : 2.40:1
Original display aspect rat : 2.40:1
Frame rate mode : Constant
Frame rate : 25.000 FPS
Color space : YUV
Chroma subsampling : 4:2:0
Bit depth : 8 bits
Scan type : Progressive
Bits/(Pixel*Frame) : 0.333
Stream size : 1.13 GiB (89%)
Title : Маленький принц.1966
Writing library : x264 core 152 r2851kMod ba24899
Encoding settings : cabac=1 / ref=16 / deblock=1:-2:-2 / analyse=0x3:0x133 / me=umh / subme=10 / psy=1 / fade_compensate=0.00 / psy_rd=1.00:0.15 / mixed_ref=1 / me_range=32 / chroma_me=1 / trellis=2 / 8x8dct=1 / cqm=0 / deadzone=21,11 / fast_pskip=1 / chroma_qp_offset=-3 / threads=12 / lookahead_threads=3 / sliced_threads=0 / nr=0 / decimate=0 / interlaced=0 / bluray_compat=0 / constrained_intra=0 / bframes=10 / b_pyramid=2 / b_adapt=2 / b_bias=0 / direct=3 / weightb=1 / open_gop=0 / weightp=2 / keyint=250 / keyint_min=25 / scenecut=40 / intra_refresh=0 / rc_lookahead=60 / rc=crf / mbtree=0 / crf=18.5000 / qcomp=0.65 / qpmin=0 / qpmax=69 / qpstep=4 / vbv_maxrate=62500 / vbv_bufsize=78125 / crf_max=0.0 / nal_hrd=none / filler=0 / ip_ratio=1.40 / pb_ratio=1.30 / aq=1:0.90
Language : Russian
Default : Yes
Forced : No
Color range : Limited
Color primaries : BT.601 PAL
Transfer characteristics : BT.470 System B, BT.470 System G
Matrix coefficients : BT.601
Audio
ID : 2
Format : AC-3
Format/Info : Audio Coding 3
Mode extension : CM (complete main)
Format settings, Endianness : Big
Codec ID : A_AC3
Duration : 1 h 3 min
Bit rate mode : Constant
Bit rate : 256 kb/s
Channel(s) : 2 channels
Channel positions : Front: L R
Sampling rate : 48.0 kHz
Frame rate : 31.250 FPS (1536 spf)
Compression mode : Lossy
Stream size : 117 MiB (9%)
Title : Оригинал: AC-3; 16 bit 48 Khz; 2.0ch 256 Kbps; CBR
Language : Russian
Default : Yes
Forced : No
 
Не забывайте говорить Спасибо. Не уходите с раздачи!   
Торрент: Зарегистрирован [09 янв 2018, 18:55] Скачать торрент
Скачать торрент
[ Размер 13.17 КБ / Просмотров 6 ]
Статус:
Проверен
 
.torrent скачан: 0 раз
Хэш: f7154b50383a854cc7eff848f915b7adfa468134
Размер: 1.27 ГБ (1 364 547 489 байт)
Стать Автором раздачи
 
 
Раздал: 0 байт
Скачал: 0 байт
Ратио: Inf.
Сообщения: 487468
Зарегистрирован: 17 апр 2014, 13:57


  • Похожие торренты
    Ответы
    Просмотры
    Последнее сообщение

Вернуться в Кино СССР, Советской России, Российской республики (1917-1991)

Ресурс не предоставляет электронные версии произведений, а занимается лишь коллекционированием и каталогизацией ссылок, присылаемых и публикуемых на форуме нашими читателями. Если вы являетесь правообладателем какого-либо представленного материала и не желаете чтобы ссылка на него находилась в нашем каталоге, свяжитесь с нами и мы незамедлительно удалим её. Файлы для обмена на трекере предоставлены пользователями сайта, и администрация не несёт ответственности за их содержание. Просьба не заливать файлы, защищенные авторскими правами, а также файлы нелегального содержания!
cron