Притяжение (2017) BDRip 1080p от KORSAR | GER Transfer

 
 Статистика раздачи 
Размер: 10.81 ГБ   |  Зарегистрирован: 07 янв 2018, 21:42   |   .torrent скачан: 0 раз
Сидеров: 1  [ 0 байт/сек ]     Личеров: 0  [ 0 байт/сек ]  
  

Притяжение (2017) BDRip 1080p от KORSAR | GER Transfer

Сообщение Lester » 07 янв 2018, 21:42

Притяжение

«Земля - землянам!»



Страна: Россия
Жанр: фантастика
Год выпуска: 2017
Продолжительность: 02:12:59
Перевод: Не требуется
Субтитры: русские (Forced ( by Ash61 ))


Режиссер: Фёдор Бондарчук


В ролях: Ирина Старшенбаум (Юля Лебедева), Александр Петров (Артём), Риналь Мухаметов (Хэкон / Харитон), Олег Меньшиков (полковник Лебедев), Евгений Сангаджиев (Питон), Алексей Маслодудов, Никита Кукушкин (Руслан), Евгений Михеев («Гугл»), Антон Шпиньков, Евгений Коряковский (учитель), Дарья Руденок (Светлана Морозова), Людмила Максакова (Люба, бабушка Юли Лебедевой)


Описание: ...Как только что стало известно, сбитый над Москвой неопознанный объект имеет, возможно, внеземное происхождение. Большая часть столичного Чертанова оцеплена, к месту крушения стягиваются представители силовых структур, решается вопрос об эвакуации местных жителей. По словам нашего источника в Минобороны, сейчас специальная комиссия пытается вступить в контакт с так называемыми «гостями». В эти минуты мы готовим экстренный выпуск новостей и о развитии событий вы узнаете первыми...



MPAA: R - Лицам до 17 лет обязательно присутствие взрослого


Семпл





Качество: BDRip 1080p
Контейнер: MKV

Видео: AVC, 1920x804 (2.40:1), 11000 kbps, 23,976 fps, 0,297 bpp
Аудио: русский / AC3 / 5.1 / 48 kHz / 640 kbps
Навигация по главам: есть



Формат : Matroska
Версия формата : Version 2
Размер файла : 10,8 Гбайт
Продолжительность : 2 ч. 12 м.
Общий поток : 11,6 Мбит/сек
Название фильма : = Притяжение (2017) BDRip 1080p от KORSAR =
Дата кодирования : UTC 2017-12-31 09:29:24
Программа кодирования : mkvmerge v5.8.0 ('No Sleep / Pillow') built on Sep 2 2012 15:37:04
Библиотека кодирования : libebml v1.2.3 + libmatroska v1.3.0
Attachment : Yes

Видео
Идентификатор : 1
Формат : AVC
Формат/Информация : Advanced Video Codec
Профиль формата : High@L4.1
Параметр CABAC формата : Да
Параметр ReFrames формата : 5 кадров
Идентификатор кодека : V_MPEG4/ISO/AVC
Продолжительность : 2 ч. 12 м.
Битрейт : 11,0 Мбит/сек
Ширина : 1920 пикселей
Высота : 804 пикселя
Соотношение сторон : 2,40:1
Режим частоты кадров : Постоянный
Частота кадров : 23,976 кадра/сек
Цветовое пространство : YUV
Субдискретизация насыщенности : 4:2:0
Битовая глубина : 8 бит
Тип развёртки : Прогрессивная
Бит/(Пиксели*Кадры) : 0.297
Размер потока : 10,0 Гбайт (93%)
Заголовок : Притяжение (2017) BDRip 1080p от KORSAR
Библиотека кодирования : x264 core 148 r2744kMod b97ae06
Настройки программы : cabac=1 / ref=5 / deblock=1:-3:-3 / analyse=0x3:0x113 / me=umh / subme=11 / psy=1 / fade_compensate=0.00 / psy_rd=1.00:0.00 / mixed_ref=1 / me_range=32 / chroma_me=1 / trellis=2 / 8x8dct=1 / cqm=0 / deadzone=21,11 / fast_pskip=0 / chroma_qp_offset=-2 / threads=12 / lookahead_threads=2 / sliced_threads=0 / nr=0 / decimate=0 / interlaced=0 / bluray_compat=0 / constrained_intra=0 / bframes=8 / b_pyramid=2 / b_adapt=2 / b_bias=0 / direct=3 / weightb=1 / open_gop=0 / weightp=2 / keyint=240 / keyint_min=23 / scenecut=40 / intra_refresh=0 / rc_lookahead=60 / rc=2pass / mbtree=0 / bitrate=11000 / ratetol=1.0 / qcomp=0.60 / qpmin=0 / qpmax=39 / qpstep=4 / cplxblur=20.0 / qblur=0.5 / vbv_maxrate=50000 / vbv_bufsize=62500 / nal_hrd=none / filler=0 / ip_ratio=1.40 / pb_ratio=1.30 / aq=3:0.90
Язык : Russian
Default : Да
Forced : Нет
Основные цвета : BT.709
Характеристики трансфера : BT.709
Коэффициенты матрицы : BT.709

Аудио
Идентификатор : 2
Формат : AC-3
Формат/Информация : Audio Coding 3
Расширение режима : CM (complete main)
Параметр Endianness формата : Big
Идентификатор кодека : A_AC3
Продолжительность : 2 ч. 12 м.
Вид битрейта : Постоянный
Битрейт : 640 Кбит/сек
Каналы : 6 каналов
Расположение каналов : Front: L C R, Side: L R, LFE
Частота : 48,0 КГц
Битовая глубина : 16 бит
Метод сжатия : С потерями
Размер потока : 609 Мбайт (5%)
Язык : Russian
Default : Да
Forced : Нет

Текст
Идентификатор : 3
Формат : UTF-8
Идентификатор кодека : S_TEXT/UTF8
Идентификатор кодека/Информация : UTF-8 Plain Text
Заголовок : Forced ( by Ash61 )
Язык : Russian
Default : Да
Forced : Да

Меню
00:00:00.000 : en:00:00:00.000
00:08:07.195 : en:00:08:07.195
00:18:22.268 : en:00:18:22.268
00:28:19.656 : en:00:28:19.656
00:40:23.504 : en:00:40:23.504
00:50:21.769 : en:00:50:21.769
00:59:39.868 : en:00:59:39.868
01:08:28.062 : en:01:08:28.062
01:20:01.088 : en:01:20:01.088
01:29:55.724 : en:01:29:55.724
01:38:42.875 : en:01:38:42.875
01:47:50.464 : en:01:47:50.464
01:55:32.175 : en:01:55:32.175
02:02:33.471 : en:02:02:33.471








*****GER vs. RUS*****





 
Не забывайте говорить Спасибо. Не уходите с раздачи!   
Торрент: Зарегистрирован [07 янв 2018, 21:42] Для скачивания .torrent
необходима регистрация
Или скачать с помощью
MediaGet
Статус:
Проверен
 
.torrent скачан: 0 раз
Хэш: c435aebe13d65fc041fc60eef2b3982cd70cf6d2
Размер: 10.81 ГБ (11 609 536 497 байт)
Стать Автором раздачи
 
 
Раздал: 100 ГБ
Скачал: 0 байт
Ратио: Seed.
Сообщения: 118005
Зарегистрирован: 09 апр 2015, 23:00


  • Похожие торренты
    Ответы
    Просмотры
    Последнее сообщение

Вернуться в Отечественное кино

Ресурс не предоставляет электронные версии произведений, а занимается лишь коллекционированием и каталогизацией ссылок, присылаемых и публикуемых на форуме нашими читателями. Если вы являетесь правообладателем какого-либо представленного материала и не желаете чтобы ссылка на него находилась в нашем каталоге, свяжитесь с нами и мы незамедлительно удалим её. Файлы для обмена на трекере предоставлены пользователями сайта, и администрация не несёт ответственности за их содержание. Просьба не заливать файлы, защищенные авторскими правами, а также файлы нелегального содержания!
cron