Следы на воде (2017) DVDRip-AVC

 
 Статистика раздачи 
Размер: 1.66 ГБ   |  Зарегистрирован: 07 янв 2018, 21:34   |   .torrent скачан: 0 раз
Сидеров: 1  [ 0 байт/сек ]     Личеров: 0  [ 0 байт/сек ]  
  

Следы на воде (2017) DVDRip-AVC

Сообщение Lester » 07 янв 2018, 21:34

Информация о фильме
Название: Следы на воде
Год выхода: 2017
Жанр: Драма, исторический
Режиссер: Александр Анисимов
В ролях: Артём Курень, Пётр Юрченков, Вероника Пляшкевич, Сергей Юревич, Татьяна Чердынцева, Анатолий Терпицкий, Игорь Денисов, Игорь Сигов, Виктор Манаев, Евгений Никитин, Андрей Кривецкий, Валерий Зеленский, Дмитрий Пустильник, Зоя Белохвостик, Сергей Савенков, Геннадий Фомин

О фильме:
Художественная реконструкция реальных событий, рассказывающих о борьбе белорусской милиции с бандитизмом в первые послевоенные годы.

1946 год. Фронтовик-разведчик, старший лейтенант Смолич прибывает в городок Поречье на усиление местной милиции: в западных районах Беларуси банды терроризируют население. Особенно лютуют бандиты таинственного Фрейшюца, бывшего пособника фашистов. Смолич и начальник уголовного розыска Крикунов должны обезвредить неуловимого врага. Однако план милицейской операции внезапно оказывается под угрозой из-за утечки информации. Выясняется, что в отделении милиции есть предатель…



Страна: Беларусь
Студия: Кинокомпания "Беларусьфильм"
Продолжительность: 01:36:00
Перевод: Не требуется

Файл
Кодек: H264
Качество: DVDRip-AVC
Видео: 2 207 kb/s, high L4.1, yuv420p, 700x430
Звук: ac3, 48000 Hz, stereo, 224 kb/s
Язык: русский

General
Unique ID : 323316376385844226104696748576064561757 (0xF33C78159383E103F230F76BABF6625D)
Complete name : D:Следы на воде.2017.DVDRip-AVC.mkv
Format : Matroska
Format version : Version 4 / Version 2
File size : 1.66 GiB
Duration : 1 h 36 min
Overall bit rate mode : Variable
Overall bit rate : 2 481 kb/s
Encoded date : UTC 2017-12-25 15:10:16
Writing application : Lavf58.2.100
Writing library : Lavf58.2.100
ErrorDetectionType : Per level 1

Video
ID : 1
Format : AVC
Format/Info : Advanced Video Codec
Format profile : High@L4.1
Format settings : CABAC / 4 Ref Frames
Format settings, CABAC : Yes
Format settings, RefFrames : 4 frames
Codec ID : V_MPEG4/ISO/AVC
Duration : 1 h 36 min
Bit rate mode : Variable
Bit rate : 2 207 kb/s
Maximum bit rate : 24.0 Mb/s
Width : 700 pixels
Height : 430 pixels
Display aspect ratio : 2.35:1
Frame rate mode : Constant
Frame rate : 25.000 FPS
Color space : YUV
Chroma subsampling : 4:2:0
Bit depth : 8 bits
Scan type : Progressive
Bits/(Pixel*Frame) : 0.293
Stream size : 1.48 GiB (89%)
Writing library : Lavc58.3.103 nvenc_h264
Default : Yes
Forced : No

Audio
ID : 2
Format : AC-3
Format/Info : Audio Coding 3
Format settings, Endianness : Big
Codec ID : A_AC3
Duration : 1 h 36 min
Bit rate mode : Constant
Bit rate : 224 kb/s
Channel(s) : 2 channels
Channel positions : Front: L R
Sampling rate : 48.0 kHz
Frame rate : 31.250 FPS (1536 SPF)
Bit depth : 16 bits
Compression mode : Lossy
Stream size : 154 MiB (9%)
Service kind : Complete Main
Default : Yes
Forced : No
Семпл
 
Не забывайте говорить Спасибо. Не уходите с раздачи!   
Торрент: Зарегистрирован [07 янв 2018, 21:34] Для скачивания .torrent
необходима регистрация
Или скачать с помощью
MediaGet
Статус:
Проверен
 
.torrent скачан: 0 раз
Хэш: dd4daa92450432e6b2482542c6f7e3ac9eedac14
Размер: 1.66 ГБ (1 785 989 839 байт)
Стать Автором раздачи
 
 
Раздал: 100 ГБ
Скачал: 0 байт
Ратио: Seed.
Сообщения: 113171
Зарегистрирован: 09 апр 2015, 23:00


  • Похожие торренты
    Ответы
    Просмотры
    Последнее сообщение

Вернуться в Отечественное кино

Ресурс не предоставляет электронные версии произведений, а занимается лишь коллекционированием и каталогизацией ссылок, присылаемых и публикуемых на форуме нашими читателями. Если вы являетесь правообладателем какого-либо представленного материала и не желаете чтобы ссылка на него находилась в нашем каталоге, свяжитесь с нами и мы незамедлительно удалим её. Файлы для обмена на трекере предоставлены пользователями сайта, и администрация не несёт ответственности за их содержание. Просьба не заливать файлы, защищенные авторскими правами, а также файлы нелегального содержания!
cron