Салют-7 (2017) BDRip-AVC от ExKinoRay | Лицензия

 
 Статистика раздачи 
Размер: 1.89 ГБ   |  Зарегистрирован: 07 янв 2018, 20:52   |   .torrent скачан: 0 раз
Сидеров: 1  [ 0 байт/сек ]     Личеров: 0  [ 0 байт/сек ]  
  

Салют-7 (2017) BDRip-AVC от ExKinoRay | Лицензия

Сообщение Lester » 07 янв 2018, 20:52

Информация о фильме
Название: Салют-7
Год выхода: 2017
Жанр: драма, приключения, триллер
Режиссер: Клим Шипенко
В ролях: Владимир Вдовиченков, Павел Деревянко, Александр Самойленко, Виталий Хаев, Оксана Фандера, Любовь Аксёнова, Роман Перелыгин, Полина Руденко, Александра Серебрякова, Мария Миронова
Описание: Космическая станция «Салют-7», находящаяся на орбите в беспилотном режиме, неожиданно перестает отвечать на сигналы центра управления полетом. Принято решение об отправке на орбиту спасательной экспедиции. Космический экипаж должен найти «мертвую» станцию и впервые в мире провести стыковку с 20-тонной глыбой неуправляемого железа.

Космонавты понимают, что шансов вернуться на Землю у них немного. Но этот рискованный путь — единственно возможный. Они должны не только проникнуть на «Салют-7», но и оживить его. Смогут ли два человека предотвратить неминуемую катастрофу и спасти планету от падения станции? Спасательная экспедиция превращается в опасное испытание. На орбите разворачивается настоящий космический детектив. Фильм основан на реальных событиях: полет к станции «Салют-7» в 1985 году считается самым сложным полетом в истории космонавтики.



Страна: Россия
Студия: Канал Россия, Кинокомпания CTB, Lemon Films Studio, Vita Aktiva
Продолжительность: 01:50:42
Перевод: Оригинальный | Лицензия

Файл
Контейнер: MKV
Качество: BDRip-AVC
Видео: AVC, 1024x458 (2.40:1), 23.976 fps, 1998 Kbps, 0.178 bit/pixel
Аудио: AC-3, 48.0 KHz, 6 ch, 448 Kbps, CBR (Russian)

На подготовку к съемкам фильма ушло 8 месяцев. Часть съемок проходила в пригороде Санкт-Петербурга, где в большом ангаре были построены декорации космической станции, центра управления полетами и советской квартиры. Также съемки велись в Москве и США.
Готовясь к съемкам, исполнители главных ролей и режиссер встречались с реальными участниками тех событий — космонавтами Владимиром Джанибековым и Виктором Савиных. В фильме были изменены отдельные детали их биографий, поэтому персонажи Владимира Вдовиченкова и Павла Деревянко получили другие фамилии.
В качестве консультантов в проект были привлечены специалисты из «Роскосмоса» и РКК «Энергия».
Первоначально премьера фильма была намечена на 6 апреля 2017 года. Однако в итоге она была перенесена на 12 октября 2017 года.
Съемочный период составил 83 дня.
В основе фильма лежат реальные события, произошедшие в 1985 году. Когда была потеряна связь с советской космической станцией «Салют-7», на орбиту отправили Владимира Джанибекова и Виктора Савиных. Это был первый в истории случай стыковки с неуправляемым объектом в космосе.
[*]Между двумя операторами фильма были распределены земные и космические сцены. Земными занимался Иван Бурлаков, а космическими – Сергей Астахов.


General
Unique ID : 183736029407440091854860483425860951754 (0x8A3A45A7AE5B66D3A862CBBF40059ECA)
Complete name : D:Salut.7.2017.BDRip.AVC.ExKinoRay.mkv
Format : Matroska
Format version : Version 2
File size : 1.89 GiB
Duration : 1 h 50 min
Overall bit rate : 2 446 kb/s
Movie name : Салют-7 (2017) from ExKinoRay
Encoded date : UTC 2017-12-25 02:26:18
Writing application : mkvmerge v5.6.0 ('Kenya Kane') built on May 27 2012 16:44:04
Writing library : libebml v1.2.3 + libmatroska v1.3.0

Video
ID : 1
Format : AVC
Format/Info : Advanced Video Codec
Format profile : High@L4.1
Format settings, CABAC : Yes
Format settings, ReFrames : 11 frames
Codec ID : V_MPEG4/ISO/AVC
Duration : 1 h 50 min
Bit rate : 1 998 kb/s
Width : 1 024 pixels
Height : 458 pixels
Display aspect ratio : 2.25:1
Frame rate mode : Constant
Frame rate : 23.976 (24000/1001) FPS
Color space : YUV
Chroma subsampling : 4:2:0
Bit depth : 8 bits
Scan type : Progressive
Bits/(Pixel*Frame) : 0.178
Stream size : 1.51 GiB (80%)
Title : Enigma
Writing library : x264 core 148 r2638 7599210
Encoding settings : cabac=1 / ref=11 / deblock=1:-2:-2 / analyse=0x3:0x113 / me=umh / subme=11 / psy=1 / psy_rd=1.00:0.05 / mixed_ref=1 / me_range=32 / chroma_me=1 / trellis=2 / 8x8dct=1 / cqm=0 / deadzone=21,11 / fast_pskip=1 / chroma_qp_offset=-3 / threads=12 / lookahead_threads=3 / sliced_threads=0 / nr=0 / decimate=0 / interlaced=0 / bluray_compat=0 / constrained_intra=0 / bframes=11 / b_pyramid=2 / b_adapt=2 / b_bias=0 / direct=3 / weightb=1 / open_gop=0 / weightp=2 / keyint=240 / keyint_min=23 / scenecut=40 / intra_refresh=0 / rc_lookahead=50 / rc=2pass / mbtree=0 / bitrate=1998 / ratetol=1.0 / qcomp=0.60 / qpmin=0 / qpmax=51 / qpstep=4 / cplxblur=20.0 / qblur=0.5 / vbv_maxrate=50000 / vbv_bufsize=62500 / nal_hrd=none / filler=0 / ip_ratio=1.40 / pb_ratio=1.30 / aq=1:0.90
Default : Yes
Forced : No
Color range : Limited
Color primaries : BT.709
Transfer characteristics : BT.709
Matrix coefficients : BT.709

Audio
ID : 2
Format : AC-3
Format/Info : Audio Coding 3
Mode extension : CM (complete main)
Format settings, Endianness : Big
Codec ID : A_AC3
Duration : 1 h 50 min
Bit rate mode : Constant
Bit rate : 448 kb/s
Channel(s) : 6 channels
Channel positions : Front: L C R, Side: L R, LFE
Sampling rate : 48.0 kHz
Frame rate : 31.250 FPS (1536 spf)
Compression mode : Lossy
Stream size : 355 MiB (18%)
Title : Лицензия
Language : Russian
Default : Yes
Forced : No

Menu
00:00:00.000 : ru:Chapter 01
00:14:40.629 : ru:Chapter 02
00:26:47.814 : ru:Chapter 03
00:41:13.721 : ru:Chapter 04
00:54:44.322 : ru:Chapter 05
01:09:28.914 : ru:Chapter 06
01:22:12.093 : ru:Chapter 07
01:37:55.578 : ru:Chapter 08




Релиз от:

Автор релиза:
 
Не забывайте говорить Спасибо. Не уходите с раздачи!   
Торрент: Зарегистрирован [07 янв 2018, 20:52] Для скачивания .torrent
необходима регистрация
Или скачать с помощью
MediaGet
Статус:
Проверен
 
.torrent скачан: 0 раз
Хэш: dc3ccd232eebf2e551fb6c20603adbcde0e44cbc
Размер: 1.89 ГБ (2 030 834 119 байт)
Стать Автором раздачи
 
 
Раздал: 100 ГБ
Скачал: 0 байт
Ратио: Seed.
Сообщения: 117960
Зарегистрирован: 09 апр 2015, 23:00


  • Похожие торренты
    Ответы
    Просмотры
    Последнее сообщение

Вернуться в Отечественное кино

Ресурс не предоставляет электронные версии произведений, а занимается лишь коллекционированием и каталогизацией ссылок, присылаемых и публикуемых на форуме нашими читателями. Если вы являетесь правообладателем какого-либо представленного материала и не желаете чтобы ссылка на него находилась в нашем каталоге, свяжитесь с нами и мы незамедлительно удалим её. Файлы для обмена на трекере предоставлены пользователями сайта, и администрация не несёт ответственности за их содержание. Просьба не заливать файлы, защищенные авторскими правами, а также файлы нелегального содержания!
cron