Притяжение (2017) HDRip-AVC от Kaztorrents | GER Transfer

 
 Статистика раздачи 
Размер: 2.17 ГБ   |  Зарегистрирован: 07 янв 2018, 20:21   |   .torrent скачан: 2979 раз
Сидеров: 72  [ 0 байт/сек ]     Личеров: 6  [ 0 байт/сек ]  
  

Притяжение (2017) HDRip-AVC от Kaztorrents | GER Transfer

Сообщение Lester » 07 янв 2018, 20:21

✦ Притяжение ✦


Информация о фильме:
❖ Год выпуска: 2017
❖ Страна: Россия
❖ Жанр: фантастика
❖ Перевод: Не требуется
❖ Субтитры: Русские форсированные (отдельно) ( by Ash61)
❖ Продолжительность: 02:12:59

❖ Режиссер: Фёдор Бондарчук
❖ В ролях: Ирина Старшенбаум, Александр Петров, Риналь Мухаметов, Олег Меньшиков, Евгений Сангаджиев, Алексей Маслодудов, Никита Кукушкин, Евгений Михеев, Антон Шпиньков, Евгений Коряковский, Дарья Руденок, Людмила Максакова

❖ Релиз от:
❖ Автор рипа: ProT1gR

Описание фильма:
...Как только что стало известно, сбитый над Москвой неопознанный объект имеет, возможно, внеземное происхождение. Большая часть столичного Чертанова оцеплена, к месту крушения стягиваются представители силовых структур, решается вопрос об эвакуации местных жителей. По словам нашего источника в Минобороны, сейчас специальная комиссия пытается вступить в контакт с так называемыми «гостями». В эти минуты мы готовим экстренный выпуск новостей и о развитии событий вы узнаете первыми...



Технические данные файла:
❖ Качество: HDRip-AVC (Исх. BDRip 1080p от KORSAR )
❖ Формат: MKV
❖ Видео: 1024x432 (2.40:1), 23.976 fps, MPEG-4 AVC ~ 1949 kbps (0.184 bit/pixel)
❖ Аудио: AC3, 48.0 KHz, 6 ch, 384 kbps

General
Unique ID : 245008827573621041309869986100483406575 (0xB852FBD81C1EFD808D18F669072B3AEF)
Complete name : Pritjazenie.(2017).HDRip-AVC.[Kaztorrents].mkv
Format : Matroska
Format version : Version 2
File size : 2.17 GiB
Duration : 2 h 12 min
Overall bit rate : 2 335 kb/s
Encoded date : UTC 2018-01-05 07:18:50
Writing application : mkvmerge v7.8.0 ('River Man') 32bit built on Apr 3 2015 12:11:22
Writing library : libebml v1.3.1 + libmatroska v1.4.2

Video
ID : 1
Format : AVC
Format/Info : Advanced Video Codec
Format profile : High@L4
Format settings, CABAC : Yes
Format settings, ReFrames : 11 frames
Codec ID : V_MPEG4/ISO/AVC
Duration : 2 h 12 min
Bit rate : 1 949 kb/s
Width : 1 024 pixels
Height : 432 pixels
Display aspect ratio : 2.40:1
Frame rate mode : Constant
Frame rate : 23.976 (24000/1001) FPS
Color space : YUV
Chroma subsampling : 4:2:0
Bit depth : 8 bits
Scan type : Progressive
Bits/(Pixel*Frame) : 0.184
Stream size : 1.77 GiB (82%)
Writing library : x264 core 146 r2538 121396c
Encoding settings : cabac=1 / ref=11 / deblock=1:-3:-3 / analyse=0x3:0x113 / me=umh / subme=11 / psy=1 / psy_rd=1.00:0.00 / mixed_ref=1 / me_range=48 / chroma_me=1 / trellis=2 / 8x8dct=1 / cqm=0 / deadzone=21,11 / fast_pskip=0 / chroma_qp_offset=-2 / threads=6 / lookahead_threads=1 / sliced_threads=0 / nr=0 / decimate=0 / interlaced=0 / bluray_compat=0 / constrained_intra=0 / bframes=11 / b_pyramid=2 / b_adapt=2 / b_bias=0 / direct=3 / weightb=1 / open_gop=0 / weightp=2 / keyint=240 / keyint_min=23 / scenecut=40 / intra_refresh=0 / rc_lookahead=40 / rc=2pass / mbtree=0 / bitrate=1949 / ratetol=1.0 / qcomp=0.60 / qpmin=0 / qpmax=69 / qpstep=4 / cplxblur=20.0 / qblur=0.5 / vbv_maxrate=50000 / vbv_bufsize=62500 / nal_hrd=none / filler=0 / ip_ratio=1.40 / pb_ratio=1.30 / aq=1:1.10
Default : Yes
Forced : No

Audio
ID : 2
Format : AC-3
Format/Info : Audio Coding 3
Format settings, Endianness : Big
Codec ID : A_AC3
Duration : 2 h 12 min
Bit rate mode : Constant
Bit rate : 384 kb/s
Channel(s) : 6 channels
Channel positions : Front: L C R, Side: L R, LFE
Sampling rate : 48.0 kHz
Frame rate : 31.250 FPS (1536 spf)
Bit depth : 16 bits
Compression mode : Lossy
Stream size : 365 MiB (16%)
Service kind : Complete Main
Default : Yes
Forced : No



 
Не забывайте говорить Спасибо. Не уходите с раздачи!   
Торрент: Зарегистрирован [07 янв 2018, 20:21] Для скачивания .torrent
необходима регистрация
Или скачать с помощью
MediaGet
Статус:
Проверен
 
.torrent скачан: 2979 раз
Хэш: 9f494f92ff74e49ce41ff45e1fc91f9b599a191c
Размер: 2.17 ГБ (2 328 559 408 байт)
Стать Автором раздачи
 
 
Раздал: 100 ГБ
Скачал: 0 байт
Ратио: Seed.
Сообщения: 113097
Зарегистрирован: 09 апр 2015, 23:00


  • Похожие торренты
    Ответы
    Просмотры
    Последнее сообщение

Вернуться в Отечественное кино

Ресурс не предоставляет электронные версии произведений, а занимается лишь коллекционированием и каталогизацией ссылок, присылаемых и публикуемых на форуме нашими читателями. Если вы являетесь правообладателем какого-либо представленного материала и не желаете чтобы ссылка на него находилась в нашем каталоге, свяжитесь с нами и мы незамедлительно удалим её. Файлы для обмена на трекере предоставлены пользователями сайта, и администрация не несёт ответственности за их содержание. Просьба не заливать файлы, защищенные авторскими правами, а также файлы нелегального содержания!
cron