Рождество Христово. Трансляция из Храма Христа Спасителя / Россия 1 [06.01.2018, Богослужение, SATRip/MKV/H.264]

 
 Статистика раздачи 
Размер: 1.72 ГБ   |  Зарегистрирован: 07 янв 2018, 01:58   |   .torrent скачан: 0 раз
Сидеров: 1  [ 0 байт/сек ]     Личеров: 0  [ 0 байт/сек ]  
  

Рождество Христово. Трансляция из Храма Христа Спасителя / Россия 1 [06.01.2018, Богослужение, SATRip/MKV/H.264]

Сообщение Nakazhu » 07 янв 2018, 01:58

Рождество Христово 2018
Трансляция из Храма Христа Спасителя

Дата/Год выпуска: 06.01.2018
Страна: Россия
Жанр: Богослужение
Продолжительность: 02:20:35
Перевод: Не требуется
Русские субтитры: нет
Телеканал:
Описание: Телеканал "Россия 1" представляет трансляцию рождественского богослужения из Храма Христа Спасителя в Москве. Рождество – один из главных христианских праздников, установленный в честь рождения Иисуса Христа от Девы Марии. Русская православная церковь и другие церкви, использующие юлианский календарь, празднуют Рождество 7 января.
Автор рипа/записи:
Сэмпл:

Качество: SATRip
Формат видео: MKV
Видео: 720x540@982x540p (16:9), 25 fps, H.264, ~1800 Kbps
Аудио: 48 kHz, AAC, 2 ch, ~128.00 kbps avg
Код: Выделить всё
Формат                                   : Matroska
Версия формата                           : Version 4 / Version 2
Размер файла                             : 1,72 Гбайт
Продолжительность                        : 2 ч. 20 м.
Режим общего битрейта                    : Переменный
Общий поток                              : 1749 Кбит/сек
Название фильма                          : Рождество Христово-2018. Трансляция из Храма Христа Спасителя (Россия 1)[540p by gmm120880]
Дата кодирования                         : UTC 2018-01-06 22:25:59
Программа кодирования                    : mkvmerge v9.5.0 ('Quiet Fire') 64bit
Библиотека кодирования                   : libebml v1.3.4 + libmatroska v1.4.5
Видео
Идентификатор                            : 1
Формат                                   : AVC
Формат/Информация                        : Advanced Video Codec
Профиль формата                          : High@L3
Параметр CABAC формата                   : Да
Параметр ReFrames формата                : 4 кадра
Идентификатор кодека                     : V_MPEG4/ISO/AVC
Продолжительность                        : 2 ч. 20 м.
Вид битрейта                             : Переменный
Битрейт                                  : 1621 Кбит/сек
Максимальный битрейт                     : 1800 Кбит/сек
Ширина                                   : 720 пикселей
Высота                                   : 540 пикселей
Соотношение сторон                       : 16:9
Соотношение сторон в оригинале           : 16:9
Режим частоты кадров                     : Постоянный
Частота кадров                           : 25,000 кадров/сек
Цветовое пространство                    : YUV
Субдискретизация насыщенности            : 4:2:0
Битовая глубина                          : 8 бит
Тип развёртки                            : Прогрессивная
Бит/(Пиксели*Кадры)                      : 0.167
Размер потока                            : 1,59 Гбайт (93%)
Default                                  : Да
Forced                                   : Нет
Аудио
Идентификатор                            : 2
Формат                                   : AAC
Формат/Информация                        : Advanced Audio Codec
Профиль формата                          : LC
Идентификатор кодека                     : A_AAC
Продолжительность                        : 2 ч. 20 м.
Битрейт                                  : 125 Кбит/сек
Каналы                                   : 2 канала
Расположение каналов                     : Front: L R
Частота                                  : 48,0 КГц
Частота кадров                           : 46,875 кадров/сек (1024 spf)
Метод сжатия                             : С потерями
Размер потока                            : 126 Мбайт (7%)
Default                                  : Да
Forced                                   : Нет
 
Не забывайте говорить Спасибо. Не уходите с раздачи!   
Торрент: Зарегистрирован [07 янв 2018, 01:58] Скачать торрент
Скачать торрент
[ Размер 34.92 КБ / Просмотров 14 ]
Статус:
Проверен
 
.torrent скачан: 0 раз
Хэш: 8f9a2ac273368121459760fd60dc0c4933e7c5de
Размер: 1.72 ГБ (1 844 224 700 байт)
Стать Автором раздачи
 
 
Раздал: 0 байт
Скачал: 0 байт
Ратио: Inf.
Сообщения: 487468
Зарегистрирован: 17 апр 2014, 13:57


  • Похожие торренты
    Ответы
    Просмотры
    Последнее сообщение

Вернуться в Христианство (видео)

Ресурс не предоставляет электронные версии произведений, а занимается лишь коллекционированием и каталогизацией ссылок, присылаемых и публикуемых на форуме нашими читателями. Если вы являетесь правообладателем какого-либо представленного материала и не желаете чтобы ссылка на него находилась в нашем каталоге, свяжитесь с нами и мы незамедлительно удалим её. Файлы для обмена на трекере предоставлены пользователями сайта, и администрация не несёт ответственности за их содержание. Просьба не заливать файлы, защищенные авторскими правами, а также файлы нелегального содержания!
cron