[TR24][OF] Patti Labelle, The Bluebelles - Over The Rainbow - 1966/2012 (Funk, Soul)

 
 Статистика раздачи 
Размер: 753.36 МБ   |  Зарегистрирован: 05 янв 2018, 20:29   |   .torrent скачан: 0 раз
Сидеров: 1  [ 0 байт/сек ]     Личеров: 0  [ 0 байт/сек ]  
  

[TR24][OF] Patti Labelle, The Bluebelles - Over The Rainbow - 1966/2012 (Funk, Soul)

Сообщение Nakazhu » 05 янв 2018, 20:29

Patti Labelle, The Bluebelles / Over The Rainbow
Формат записи/Источник записи: [TR24][OF]
Наличие водяных знаков: Нет
Год издания/переиздания диска: 1966/2012
Жанр: Funk, Soul
Издатель (лейбл): Rhino, Atlantic
Продолжительность: 00:34:02
Наличие сканов в содержимом раздачи: Front
Источник (релизер): hdtracks
Контейнер: FLAC (*.flac)
Тип рипа: tracks
Разрядность: 24/96
Формат: PCM
Количество каналов: 2.0
Треклист:
01. Over The Rainbow
02. More
03. Groovy Kind Of Love
04. Ebb Tide
05. All Or Nothing
06. People
07. Unchained Melody
08. Patti's Prayer
09. He
10. Yesterday
11. Who Can I Turn To
12. Try To Remember
Код: Выделить всё
foobar2000 1.1.10 / Dynamic Range Meter 1.1.1
log date: 2018-01-05 18:28:38
--------------------------------------------------------------------------------
Analyzed: Patti Labelle, The Bluebelles / Over The Rainbow
--------------------------------------------------------------------------------
DR         Peak         RMS     Duration Track
--------------------------------------------------------------------------------
DR10      -3.60 dB   -18.09 dB      2:47 ?-Over The Rainbow
DR9       -2.90 dB   -15.26 dB      2:14 ?-More
DR10      -1.92 dB   -15.04 dB      2:13 ?-Groovy Kind Of Love
DR11      -2.42 dB   -16.81 dB      2:21 ?-Ebb Tide
DR9       -0.96 dB   -13.28 dB      2:28 ?-All Or Nothing
DR11      -3.06 dB   -17.14 dB      4:32 ?-People
DR10      -3.17 dB   -16.07 dB      3:40 ?-Unchained Melody
DR10       0.00 dB   -14.11 dB      2:24 ?-Patti's Prayer
DR10      -4.68 dB   -17.92 dB      2:45 ?-He
DR11      -3.89 dB   -19.03 dB      2:15 ?-Yesterday
DR10      -3.08 dB   -17.05 dB      3:09 ?-Who Can I Turn To
DR10      -5.74 dB   -19.99 dB      3:14 ?-Try To Remember
--------------------------------------------------------------------------------
Number of tracks:  12
Official DR value: DR10
Samplerate:        96000 Hz
Channels:          2
Bits per sample:   24
Bitrate:           3052 kbps
Codec:             FLAC
================================================================================
 
Не забывайте говорить Спасибо. Не уходите с раздачи!   
Торрент: Зарегистрирован [05 янв 2018, 20:29] Скачать торрент
Скачать торрент
[ Размер 15.87 КБ / Просмотров 38 ]
Статус:
Проверен
 
.torrent скачан: 0 раз
Хэш: a1bd672bfda9e4b600eae4cbe2af32b83c879130
Размер: 753.36 МБ (789 954 437 байт)
Стать Автором раздачи
 
 
Раздал: 0 байт
Скачал: 0 байт
Ратио: Inf.
Сообщения: 487468
Зарегистрирован: 17 апр 2014, 13:57


Re: [TR24][OF] Patti Labelle, The Bluebelles - Over The Rainbow - 1966/2012 (Funk, Soul)

Сообщение sconi1 » 15 фев 2019, 10:26

Thanks
 
Раздал: 200 ГБ
Скачал: 0 байт
Ратио: Seed.
Сообщения: 2
Зарегистрирован: 12 сен 2017, 01:20


  • Похожие торренты
    Ответы
    Просмотры
    Последнее сообщение

Вернуться в Зарубежный Джаз и Блюз (Hi-Res stereo)

Ресурс не предоставляет электронные версии произведений, а занимается лишь коллекционированием и каталогизацией ссылок, присылаемых и публикуемых на форуме нашими читателями. Если вы являетесь правообладателем какого-либо представленного материала и не желаете чтобы ссылка на него находилась в нашем каталоге, свяжитесь с нами и мы незамедлительно удалим её. Файлы для обмена на трекере предоставлены пользователями сайта, и администрация не несёт ответственности за их содержание. Просьба не заливать файлы, защищенные авторскими правами, а также файлы нелегального содержания!
cron