Космические ЧП (1 сезон: 8 серий из 8) / Secret Space Escapes [2015, Документальный, космос, катастрофы, история, HDTVRip]

 
 Статистика раздачи 
Размер: 5.16 ГБ   |  Зарегистрирован: 05 янв 2018, 19:42   |   .torrent скачан: 0 раз
Сидеров: 1  [ 0 байт/сек ]     Личеров: 0  [ 0 байт/сек ]  
  

Космические ЧП (1 сезон: 8 серий из 8) / Secret Space Escapes [2015, Документальный, космос, катастрофы, история, HDTVRip]

Сообщение Nakazhu » 05 янв 2018, 19:42

Космические ЧП (1 сезон: 8 серий из 8) / Secret Space Escapes
Дата/Год выпуска: 2015
Страна: США
Жанр: Документальный, космос, катастрофы, история
Продолжительность: 8 х ~ 00:44:00
Перевод: Профессиональный (двухголосый закадровый)
Телеканал: Discovery Science HD
Описание: Сериал расскажет о самых сложных, непредвиденных и опасных ситуациях, происходивших в космосе с людьми и космическими аппаратами. Вы уведите самые невероятные, опасные и ранее никогда не демонстрировавшиеся аварийные ситуации и опасные происшествия с космонавтами за всю историю космических путешествий. Каждая серия длиной в час с помощью компьютерной графики и документальных видеоматериалов покажет, насколько рискованно бороздить космос и как выжить в смертельно-опасной ситуации.
Доп. информация: Авторство релиза - alf62

качество: HDTVRip
формат: AVI
Видео: 720x400 (1.80:1), 25 fps, XviD build 73 ~1899 kbps avg, 0.26 bit/pixel
Аудио: 48 kHz, AC3 Dolby Digital, 2/0 (L,R) ch, ~192.00 kbps avg
1. Пожар на орбитальной станции «Мир» / Fire on the Mir
Космонавты тушат очаг возгорания на борту русской орбитальной станции «Мир» и пытаются произвести стыковку с грузовым кораблем..
2. Кораблекрушение / Shipwrecked
В ходе столкновения с грузовым кораблем, повреждается обшивка русской орбитальной станции «Мир». Вместе с кислородом утекает и надежда на спасение экипажа.
3. Крах секретной миссии / Secret Mission Mayday
Во время засекреченной миссии команда космического шаттла «Атлантис» обнаруживает неустранимое повреждение теплозащитного экрана в нижней части корабля.
4. Токсичная утечка / Toxic Leak
Токсичная утечка аммиака угрожает жизни всему экипажу; советский космонавт едва выживает во время возвращения и оказывается в затруднительном положении; шлем космонавта заполняется водой, угрожая утопить его в космосе.
5. Точка невозврата / Point of No Return
Космонавт в открытом космосе теряет зрение после неисправности скафандра; космонавты охвачены огнем, находясь на стартовой площадке; миссия челнока прерывается за 4 секунды до запуска, но экипаж не знает, почему.
6. Неисправность солнечной батареи / Solar Panel Crisis
Ремонт панели солнечной батареи; гибель советского космонавта при входе в плотные слои атмосферы.
7. Оставить корабль / Abandon Ship
Проблемы с энергообеспечением и компьютерами; выход Алексея Леонова в открытый космос
8. Нехватка кислорода / Gasping for Air
Ядовитая утечка угрожает жизни космонавтов; миссия на космическую станцию «Салют» делает неожиданный поворот, когда экипаж подвергается разгерметизации.
Код: Выделить всё
Космические.ЧП.(1.сезон).2015.XviD.HDTVRip.alf62\1.Пожар.на.станции.«Мир».XviD.HDTVRip.alf62.avi
Формат                                   : AVI
Формат/Информация                        : Audio Video Interleave
Размер файла                             : 662 Мбайт
Продолжительность                        : 44 м.
Общий поток                              : 2102 Кбит/сек
Программа кодирования                    : VirtualDubMod 1.5.10.3 | www.virtualdub-fr.org || (build 2550/release)
Библиотека кодирования                   : VirtualDubMod build 2550/release
Видео
Идентификатор                            : 0
Формат                                   : MPEG-4 Visual
Профиль формата                          : Advanced Simple@L5
Параметр BVOP формата                    : 2
Параметр QPel формата                    : Нет
Параметр GMC формата                     : Без точки перехода
Параметр матрицы формата                 : Default (MPEG)
Идентификатор кодека                     : XVID
Идентификатор кодека/Подсказка           : XviD
Продолжительность                        : 44 м.
Битрейт                                  : 1900 Кбит/сек
Ширина                                   : 720 пикселей
Высота                                   : 400 пикселей
Соотношение сторон                       : 16:9
Частота кадров                           : 25,000 кадров/сек
Цветовое пространство                    : YUV
Субдискретизация насыщенности            : 4:2:0
Битовая глубина                          : 8 бит
Тип развёртки                            : Прогрессивная
Метод сжатия                             : С потерями
Бит/(Пиксели*Кадры)                      : 0.264
Размер потока                            : 598 Мбайт (90%)
Библиотека кодирования                   : XviD 73
Аудио
Идентификатор                            : 1
Формат                                   : AC-3
Формат/Информация                        : Audio Coding 3
Расширение режима                        : CM (complete main)
Параметр Endianness формата              : Big
Идентификатор кодека                     : 2000
Продолжительность                        : 44 м.
Вид битрейта                             : Постоянный
Битрейт                                  : 192 Кбит/сек
Каналы                                   : 2 канала
Расположение каналов                     : Front: L R
Частота                                  : 48,0 КГц
Битовая глубина                          : 16 бит
Метод сжатия                             : С потерями
Размер потока                            : 60,5 Мбайт (9%)
Выравнивание                             : Разделение по промежуткам
Продолжительность промежутка             : 40  мс. (1,00 видеокадр)
Время предзагрузки промежутка            : 500  мс.
 
Не забывайте говорить Спасибо. Не уходите с раздачи!   
Торрент: Зарегистрирован [05 янв 2018, 19:42] Скачать торрент
Скачать торрент
[ Размер 14.29 КБ / Просмотров 16 ]
Статус:
Проверен
 
.torrent скачан: 0 раз
Хэш: 2c10b155ee783b0f4f5e6b005dfa806e5c1b8864
Размер: 5.16 ГБ (5 537 603 584 байт)
Стать Автором раздачи
 
 
Раздал: 0 байт
Скачал: 0 байт
Ратио: Inf.
Сообщения: 487468
Зарегистрирован: 17 апр 2014, 13:57


  • Похожие торренты
    Ответы
    Просмотры
    Последнее сообщение

Вернуться в Космос (видео)

Ресурс не предоставляет электронные версии произведений, а занимается лишь коллекционированием и каталогизацией ссылок, присылаемых и публикуемых на форуме нашими читателями. Если вы являетесь правообладателем какого-либо представленного материала и не желаете чтобы ссылка на него находилась в нашем каталоге, свяжитесь с нами и мы незамедлительно удалим её. Файлы для обмена на трекере предоставлены пользователями сайта, и администрация не несёт ответственности за их содержание. Просьба не заливать файлы, защищенные авторскими правами, а также файлы нелегального содержания!
cron