Верующие / The Believers (Джон Шлезингер / John Schlesinger) [1987, США, Триллер, BDRip] AVO (Юрий Сербин) + AVO (Алексей Михалев)

 
 Статистика раздачи 
Размер: 2.18 ГБ   |  Зарегистрирован: 05 янв 2018, 14:31   |   .torrent скачан: 0 раз
Сидеров: 1  [ 0 байт/сек ]     Личеров: 0  [ 0 байт/сек ]  
  

Верующие / The Believers (Джон Шлезингер / John Schlesinger) [1987, США, Триллер, BDRip] AVO (Юрий Сербин) + AVO (Алексей Михалев)

Сообщение Nakazhu » 05 янв 2018, 14:31

Верующие / The Believers
«Nothing Can Stop Them. No One Can Help You. They Know Who You Are»
Страна: США
Жанр: Триллер
Год выпуска: 1987
Продолжительность: 01:54:22
Перевод: Авторский (одноголосый закадровый) Юрий Сербин
Перевод: Авторский (одноголосый закадровый) Алексей Михалев
Субтитры: нет
Режиссер: Джон Шлезингер / John Schlesinger
В ролях: Мартин Шин, Хелен Шейвер, Харли Кросс, Роберт Лоджа, Элизабет Уилсон, Харрис Юлин, Ли Ричардсон, Ричард Мейсер, Карла Пинца, Джимми Смитс
Описание: У психолога Кэла Джеймисона погибает жена. Вместе с сыном Крисом он переезжает в Нью-Йорк, где ему предложили место консультанта в полиции. Однажды Крис обнаруживает в парке следы ритуальной колдовской оргии. Он берется расследовать этот случай и знакомится со специалистом по религиозным культам.
Доп. информация: Дорожка с Ю. Сербиным ремастерирована, синхронизирована и наложена ale_x2008 при помощи Adobe Audition, iZotope RX2, Sony Vegas и VirtualDubMod. Восстановлен правильный тон переводчика.
За оцифрованную с VHS дорожку благодарим - Fikaloid
Дорожка с А. Михалевым синхронизирована и наложена ale_x2008 при помощи Sony Vegas и VirtualDubMod.
За предоставленную дорожку благодарим - ilya29
Релиз
Сэмпл: https://yadi.sk/i/EVClFlv-3RD2nK
Качество видео: BDRip [The.Believers.1987.BDRemux.1080p]
Формат видео: AVI
Видео: 704x384 (1.83:1), 23.976 fps, XviD build 73 ~2336 kbps avg, 0.36 bit/pixel
Аудио: AC3 Dolby Digital, 48000Hz, 2/0 (L,R) ch (mono), 192.00 kbps avg
Аудио 2: AC3 Dolby Digital, 48000Hz 2/0 (L,R) ch (mono), 192.00 kbps avg
Верующие - The Believers (by ale_x2008).avi
Format : AVI
Format/Info : Audio Video Interleave
Format profile : OpenDML
File size : 2.18 GiB
Duration : 1 h 54 min
Overall bit rate : 2 734 kb/s
Movie name : Верующие - The Believers (by ale_x2008)
Director : by ale_x2008
Writing application : VirtualDubMod 1.5.10.2 (build 2540/release)
Copyright : Edich2
Comment : Rutracker.org
Video
ID : 0
Format : MPEG-4 Visual
Format profile : Advanced Simple@L5
Format settings, BVOP : 1
Format settings, QPel : No
Format settings, GMC : No warppoints
Format settings, Matrix : Custom
Codec ID : XVID
Codec ID/Hint : XviD
Duration : 1 h 54 min
Bit rate : 2 332 kb/s
Width : 704 pixels
Height : 384 pixels
Display aspect ratio : 1.85:1
Frame rate : 23.976 (24000/1001) FPS
Original frame rate : 23.976 (23976/1000) FPS
Color space : YUV
Chroma subsampling : 4:2:0
Bit depth : 8 bits
Scan type : Progressive
Compression mode : Lossy
Bits/(Pixel*Frame) : 0.360
Stream size : 1.86 GiB (85%)
Writing library : XviD 73
Audio #1
ID : 1
Format : AC-3
Format/Info : Audio Coding 3
Format settings, Endianness : Big
Codec ID : 2000
Duration : 1 h 54 min
Bit rate mode : Constant
Bit rate : 192 kb/s
Channel(s) : 2 channels
Channel positions : Front: L R
Sampling rate : 48.0 kHz
Frame rate : 31.250 FPS (1536 spf)
Bit depth : 16 bits
Compression mode : Lossy
Stream size : 157 MiB (7%)
Alignment : Split accross interleaves
Interleave, duration : 42 ms (1.00 video frame)
Interleave, preload duratio : 500 ms
Service kind : Complete Main
Audio #2
ID : 2
Format : AC-3
Format/Info : Audio Coding 3
Format settings, Endianness : Big
Codec ID : 2000
Duration : 1 h 54 min
Bit rate mode : Constant
Bit rate : 192 kb/s
Channel(s) : 2 channels
Channel positions : Front: L R
Sampling rate : 48.0 kHz
Frame rate : 31.250 FPS (1536 spf)
Bit depth : 16 bits
Compression mode : Lossy
Stream size : 157 MiB (7%)
Alignment : Split accross interleaves
Interleave, duration : 42 ms (1.00 video frame)
Interleave, preload duratio : 500 ms
Service kind : Complete Main

 
Не забывайте говорить Спасибо. Не уходите с раздачи!   
Торрент: Зарегистрирован [05 янв 2018, 14:31] Скачать торрент
Скачать торрент
[ Размер 11.4 КБ / Просмотров 18 ]
Статус:
Проверен
 
.torrent скачан: 0 раз
Хэш: 0592310d0bd3df7a8cfbdcd9a5ab27f7ef8588b5
Размер: 2.18 ГБ (2 344 992 768 байт)
Стать Автором раздачи
 
 
Раздал: 0 байт
Скачал: 0 байт
Ратио: Inf.
Сообщения: 487468
Зарегистрирован: 17 апр 2014, 13:57


  • Похожие торренты
    Ответы
    Просмотры
    Последнее сообщение

Вернуться в Зарубежные фильмы до 1990 года

Ресурс не предоставляет электронные версии произведений, а занимается лишь коллекционированием и каталогизацией ссылок, присылаемых и публикуемых на форуме нашими читателями. Если вы являетесь правообладателем какого-либо представленного материала и не желаете чтобы ссылка на него находилась в нашем каталоге, свяжитесь с нами и мы незамедлительно удалим её. Файлы для обмена на трекере предоставлены пользователями сайта, и администрация не несёт ответственности за их содержание. Просьба не заливать файлы, защищенные авторскими правами, а также файлы нелегального содержания!
cron