Чемодан / La valise / Der Koffer (Кавех Бахтиари / Kaveh Bakhtiari) [2007, Швейцария, трагикомедия, короткий метр, DVB-AVC] DVO (Еврокино) + Original (Fre) + Sub (Rus)

 
 Статистика раздачи 
Размер: 119.53 МБ   |  Зарегистрирован: 05 янв 2018, 09:52   |   .torrent скачан: 0 раз
Сидеров: 1  [ 0 байт/сек ]     Личеров: 0  [ 0 байт/сек ]  
  

Чемодан / La valise / Der Koffer (Кавех Бахтиари / Kaveh Bakhtiari) [2007, Швейцария, трагикомедия, короткий метр, DVB-AVC] DVO (Еврокино) + Original (Fre) + Sub (Rus)

Сообщение Nakazhu » 05 янв 2018, 09:52

Чемодан
La valise
#77Страна: Швейцария
Жанр: трагикомедия, короткий метр
Год выпуска: 2007
Продолжительность: 00:11:50
Перевод: Профессиональный (двухголосый закадровый) Еврокино
Субтитры: русские (перевод К. Семенюк, Éclair Group)
Оригинальная аудиодорожка: французский
Режиссер: Кавех Бахтиари / Kaveh Bakhtiari
В ролях: Морис Офер / Maurice Aufair (Michel), Белла Вайнберг / Bella Wajnberg (Jeanne)
Описание: Грустный фильм о старости, привязанности и боязни одиночества. Жанна и Мишель женаты уже более 50 лет. И вот она решает съездить отдохнуть на три недели с подругами. Мишелю не нравится эта идея, и он запирается в ванной…
Доп. информация: Intelsat 15 (85.0°E) Еврокино DVB-S
Награды: Prix Kodak за лучший швейцарский короткометражный фильм Festival Tous Ecrans (Genève) 2007; приз зрительских симпатий Regensburger Kurzfilmwoche 2007.

Качество видео: DVB-AVC
Формат видео: MKV
Видео: AVC (H.264), 720x576@768x576 (4:3), 25 fps, ~1062 kbps avg, 0.062 bit/pixel
Аудио 1: MPEG Audio 2, 2 ch, 48 kHz, 160 kbps - русский
Аудио 2: MPEG Audio 2, 2 ch, 48 kHz, 192 kbps - французский
Формат субтитров: softsub (SRT)
Код: Выделить всё
General
Unique ID                                : 268702940828472262764103368222740969702 (0xCA264DD2332FA2CCAEDCB2F173B9F8E6)
Complete name                            : [apreder]MM_La_valise(2007)DVB.mkv
Format                                   : Matroska
Format version                           : Version 2
File size                                : 120 MiB
Duration                                 : 11 min 50 s
Overall bit rate                         : 1 410 kb/s
Movie name                               : La valise
Released date                            : 2007-11-00
Encoded date                             : UTC 2018-01-05 06:27:21
Writing application                      : mkvmerge v19.0.0 ('Brave Captain') 64-bit
Writing library                          : libebml v1.3.5 + libmatroska v1.4.8
Cover                                    : Yes
Attachments                              : cover.jpg / small_cover.jpg
ACTOR                                    :  Maurice Aufair, Bella Wajnberg
DIRECTOR                                 : Kaveh Bakhtiari
GENRE                                    : Short, Comedy, Drama
IMDB                                     : tt1319189
KEYWORDS                                 : rutracker.org
LAW_RATING                               : 16+
Video
ID                                       : 1
Format                                   : AVC
Format/Info                              : Advanced Video Codec
Format profile                           : Main@L3
Format settings                          : CABAC / 3 Ref Frames
Format settings, CABAC                   : Yes
Format settings, RefFrames               : 3 frames
Format settings, GOP                     : M=4, N=24
Codec ID                                 : V_MPEG4/ISO/AVC
Bit rate                                 : 1 062 kb/s
Width                                    : 720 pixels
Height                                   : 576 pixels
Display aspect ratio                     : 4:3
Original display aspect ratio            : 4:3
Frame rate mode                          : Variable
Original frame rate                      : 25.000 FPS
Standard                                 : Component
Color space                              : YUV
Chroma subsampling                       : 4:2:0
Bit depth                                : 8 bits
Scan type                                : Interlaced
Scan type, store method                  : Separated fields
Scan order                               : Top Field First
Default                                  : Yes
Forced                                   : No
Color range                              : Limited
Color primaries                          : BT.601 PAL
Transfer characteristics                 : BT.470 System B, BT.470 System G
Matrix coefficients                      : BT.470 System B, BT.470 System G
Audio #1
ID                                       : 2
Format                                   : MPEG Audio
Format version                           : Version 1
Format profile                           : Layer 2
Codec ID                                 : A_MPEG/L2
Codec ID/Hint                            : MP2
Duration                                 : 11 min 50 s
Bit rate mode                            : Constant
Bit rate                                 : 160 kb/s
Channel(s)                               : 2 channels
Sampling rate                            : 48.0 kHz
Compression mode                         : Lossy
Stream size                              : 13.6 MiB (11%)
Language                                 : Russian
Default                                  : Yes
Forced                                   : No
Audio #2
ID                                       : 3
Format                                   : MPEG Audio
Format version                           : Version 1
Format profile                           : Layer 2
Codec ID                                 : A_MPEG/L2
Codec ID/Hint                            : MP2
Duration                                 : 11 min 50 s
Bit rate mode                            : Constant
Bit rate                                 : 160 kb/s
Channel(s)                               : 2 channels
Sampling rate                            : 48.0 kHz
Compression mode                         : Lossy
Stream size                              : 13.6 MiB (11%)
Language                                 : French
Default                                  : No
Forced                                   : No
Text
ID                                       : 4
Format                                   : UTF-8
Codec ID                                 : S_TEXT/UTF8
Codec ID/Info                            : UTF-8 Plain Text
Language                                 : Russian
Default                                  : No
Forced                                   : No

[344]
 
Не забывайте говорить Спасибо. Не уходите с раздачи!   
Торрент: Зарегистрирован [05 янв 2018, 09:52] Для скачивания .torrent
необходима регистрация
Или скачать с помощью
MediaGet
Статус:
Проверен
 
.torrent скачан: 0 раз
Хэш: 1d1f48fadd1c9aa10b95e33840e3893c4e1a2f9f
Размер: 119.53 МБ (125 339 653 байт)
Стать Автором раздачи
 
 
Раздал: 0 байт
Скачал: 0 байт
Ратио: Inf.
Сообщения: 437772
Зарегистрирован: 17 апр 2014, 13:57


  • Похожие торренты
    Ответы
    Просмотры
    Последнее сообщение

Вернуться в Короткий метр

Ресурс не предоставляет электронные версии произведений, а занимается лишь коллекционированием и каталогизацией ссылок, присылаемых и публикуемых на форуме нашими читателями. Если вы являетесь правообладателем какого-либо представленного материала и не желаете чтобы ссылка на него находилась в нашем каталоге, свяжитесь с нами и мы незамедлительно удалим её. Файлы для обмена на трекере предоставлены пользователями сайта, и администрация не несёт ответственности за их содержание. Просьба не заливать файлы, защищенные авторскими правами, а также файлы нелегального содержания!
cron