Повелитель 2 / Overlord II [TV] [01 из 13] [Без хардсаба] [RUS(int), JAP] [2018, Экшен, Приключения, Фэнтези, WEBRip] [720p]

Только для раздач с озвучкой имеющей нарекания или неизвестной в рамках sun-torrents.name
 
 Статистика раздачи 
Размер: 229.54 МБ   |  Зарегистрирован: 04 янв 2018, 03:23   |   .torrent скачан: 0 раз
Сидеров: 1  [ 0 байт/сек ]     Личеров: 0  [ 0 байт/сек ]  
  

Повелитель 2 / Overlord II [TV] [01 из 13] [Без хардсаба] [RUS(int), JAP] [2018, Экшен, Приключения, Фэнтези, WEBRip] [720p]

Сообщение Nakazhu » 04 янв 2018, 03:23


Страна: Япония
Год выпуска: 2018
Жанр: Экшен, Приключения, Фэнтези
Тип: TV
Продолжительность: 13 эп., ~24 мин.
Режиссер: Наоюки Ито
Студия:
Озвучка: Многоголосая / AniLibria | SAMPLE
—Dejz(муж)
—WhiteCroW(муж)
—Itashi(жен)
—Cleo-chan(жен)
Перевод: Cleo-chan
Описание: Редко удаётся найти отличную онлайн-игру, в которой тебя устраивало бы абсолютно всё. Но пользователям "Иггдрасиль” несказанно повезло. Правда счастье их длилось недолго, ведь разработчики надумали закрыть эту игру. Лидер одной из самых могущественных гильдий по имени Момонга не хотел, чтобы игру закрывали и решил сидеть там до самого конца. Его желание отчасти сбылось, в час прощания с онлайн-миром Момонгу перенесло в реальный мир "Иггдрасиль”. Играй, сколько влезет. И Момонга бросился изучать, чем же этот мир отличается от онлайн-игры.
Однажды, во время очередной миссии, одной из верных NPC Момонги по имени Шалтия промыли мозги, и она решила убить своего бывшего хозяина. Битва с ней далась ему крайне нелегко, но в итоге он сумел перехитрить Шалтию и уничтожить её. В своём замке он возрождает девушку обратно в NPC, и она вновь обретает ясность ума. Теперь нужно выяснить, что за злой умысел стоял за её действиями, и кто дёргал за ниточки марионетки, пытаясь устранить могущественного соперника?
Информационные ссылки:: AniDB | MyAnimeList | World Art
Качество: WEBRip
Тип релиза: Без хардсаба
Формат видео: MKV
Автор рипа: HorribleSubs
Видео: AVC, 8 bits, 1280x720, ~1200 kbps, 23,976 fps
Аудио: RUS, AAC, 48000 Hz, - kbps, 2 ch (в составе контейнера)
Аудио 2: JAP, AAC, - kbps, 48000 Hz, 2 ch
Субтитры: Отсутствуют
Код: Выделить всё
Формат                                   : Matroska
Версия формата                           : Version 4 / Version 2
Размер файла                             : 230 Мбайт
Продолжительность                        : 22 м. 12 с.
Общий поток                              : 1445 Кбит/сек
Дата кодирования                         : UTC 2018-01-03 23:47:53
Программа кодирования                    : mkvmerge v19.0.0 ('Brave Captain') 64-bit
Библиотека кодирования                   : libebml v1.3.5 + libmatroska v1.4.8
Видео
Идентификатор                            : 1
Формат                                   : AVC
Формат/Информация                        : Advanced Video Codec
Профиль формата                          : High@L4.1
Настройки формата                        : CABAC / 9 Ref Frames
Параметр CABAC формата                   : Да
Параметр RefFrames формата               : 9 кадров
Идентификатор кодека                     : V_MPEG4/ISO/AVC
Продолжительность                        : 22 м. 12 с.
Битрейт                                  : 1122 Кбит/сек
Ширина                                   : 1280 пикселей
Высота                                   : 720 пикселей
Соотношение сторон                       : 16:9
Режим частоты кадров                     : Постоянный
Частота кадров                           : 23,976 (23976/1000) кадра/сек
Цветовое пространство                    : YUV
Субдискретизация насыщенности            : 4:2:0
Битовая глубина                          : 8 бит
Тип развёртки                            : Прогрессивная
Бит/(Пиксели*Кадры)                      : 0.051
Размер потока                            : 178 Мбайт (78%)
Заголовок                                : Original
Язык                                     : Japanese
Default                                  : Да
Forced                                   : Да
Аудио #1
Идентификатор                            : 2
Формат                                   : AAC
Формат/Информация                        : Advanced Audio Codec
Профиль формата                          : LC
Идентификатор кодека                     : A_AAC-2
Продолжительность                        : 22 м. 12 с.
Битрейт                                  : 192 Кбит/сек
Каналы                                   : 2 канала
Расположение каналов                     : Front: L R
Частота                                  : 48,0 КГц
Частота кадров                           : 46,875 кадров/сек (1024 SPF)
Метод сжатия                             : С потерями
Размер потока                            : 30,5 Мбайт (13%)
Заголовок                                : Cleo-chan & Itashi & Dejz & WhiteCrow
Язык                                     : Russian
Default                                  : Да
Forced                                   : Да
Аудио #2
Идентификатор                            : 3
Формат                                   : AAC
Формат/Информация                        : Advanced Audio Codec
Профиль формата                          : LC
Идентификатор кодека                     : A_AAC-2
Продолжительность                        : 22 м. 12 с.
Битрейт                                  : 128 Кбит/сек
Каналы                                   : 2 канала
Расположение каналов                     : Front: L R
Частота                                  : 48,0 КГц
Частота кадров                           : 46,875 кадров/сек (1024 SPF)
Метод сжатия                             : С потерями
Размер потока                            : 20,4 Мбайт (9%)
Заголовок                                : Original
Язык                                     : Japanese
Default                                  : Нет
Forced                                   : Нет

01. The Dawn of Despair
02. ...
03. ...
04. ...
05. ...
06. ...
07. ...
08. ...
09. ...
10. ...
11. ...
12. ...

 
Не забывайте говорить Спасибо. Не уходите с раздачи!   
Торрент: Зарегистрирован [04 янв 2018, 03:23] Для скачивания .torrent
необходима регистрация
Или скачать с помощью
MediaGet
Статус:
Проверен
 
.torrent скачан: 0 раз
Хэш: 2ddbd2842b4dee78cdf715b0bf6931716be1d518
Размер: 229.54 МБ (240 689 860 байт)
Стать Автором раздачи
 
 
Раздал: 0 байт
Скачал: 0 байт
Ратио: Inf.
Сообщения: 378869
Зарегистрирован: 17 апр 2014, 13:57


  • Похожие торренты
    Ответы
    Просмотры
    Последнее сообщение

Вернуться в Аниме (QC подраздел)

Ресурс не предоставляет электронные версии произведений, а занимается лишь коллекционированием и каталогизацией ссылок, присылаемых и публикуемых на форуме нашими читателями. Если вы являетесь правообладателем какого-либо представленного материала и не желаете чтобы ссылка на него находилась в нашем каталоге, свяжитесь с нами и мы незамедлительно удалим её. Файлы для обмена на трекере предоставлены пользователями сайта, и администрация не несёт ответственности за их содержание. Просьба не заливать файлы, защищенные авторскими правами, а также файлы нелегального содержания!
cron