Африканское сафари/African Safari/Rivers of Fire and Ice (Роналд Е. Шанин (Ronald E.Shanin) [27.09.1968, путешествия, животный мир, VHSRip+WEBRip]

 
 Статистика раздачи 
Размер: 1.44 ГБ   |  Зарегистрирован: 03 янв 2018, 21:58   |   .torrent скачан: 0 раз
Сидеров: 1  [ 0 байт/сек ]     Личеров: 0  [ 0 байт/сек ]  
  

Африканское сафари/African Safari/Rivers of Fire and Ice (Роналд Е. Шанин (Ronald E.Shanin) [27.09.1968, путешествия, животный мир, VHSRip+WEBRip]

Сообщение Nakazhu » 03 янв 2018, 21:58

Африканское сафари/African Safari/Rivers of Fire and Ice
Дата/Год выпуска: 27.09.1968
(Премьера: Denver, Colorado)
Страна: Кения, США
Жанр: путешествия, животный мир
Продолжительность: 01:34:06
Перевод: Профессиональный дублированный (Марина Шувалова, Варус-видео)
Закадровый текст: Владимир Ферапонтов
Выпускающая кинокомпания: Crown International Pictures
Русские субтитры: нет
Режиссер: Роналд Е. Шанин (Ronald E.Shanin)
Описание: Фильм более 5 лет снимался в Центральной Африке известным фотографом и знатоком животного мира Роналдом Шаниным. Редчайшие съемки львов, леопардов, слонов, носорогов, змей, зебр и редких птиц. Подлинная охота на льва, во время которой отважный автор фильма едва не погиб.
В главной роли: Майкл Рай (Michael Rye)
Доп.информация
Проект удалось осуществить по счастливому случаю - в руки попал материал (VHS), который не удалось отыскать в дебрях интернета (есть надежда - фильм появится-таки, поскольку работа очень известна, упоминаний встречается весьма и весьма...).
Резюме - осанна Варус-видео!
Внимание! Торрент перезалит в связи с обновлением материала - за основу взят WEB-Rip лучшего качества продолжительностью 01:14:13 с английской дорожкой, к которому добавлен отсутствующий фрагмент (00:21:21-00:41:15) с VHS-Rip-а с русской дорожкой. Т.о., видеофайл содержит: 1.русскую дорожку и 2.англ-ую со вставкой на русск.яз.
Film Editing by:
Paul Ent
John Gates
Fred Rowley
Floyd Stratton
Technical specifications:
Runtime: 1 hr 38 min (98 min) (USA)
Sound Mix: Mono
Color: Color
Aspect Ratio: 1.66 : 1
Laboratory: DeLuxe
Negative Format: 35 mm
Printed Film Format: 35 mm
Production Companies:R.E. Shanin Enterprises
Distributors: Crown International Pictures (1968) (USA) (theatrical)
"A true story, this is an engrossing, intriguing look at the exciting and sometimes hair-raising adventures of animal collector Ron Shanin, as he travels through Central and East".
Cinema International Corporation (CIC) (1971) (Sweden) (theatrical)
Columbia Pictures of Canada (1969) (Canada) (theatrical)
Brentwood Home Video (1998) (USA) (VHS)
Other Companies:
Government Officials of Belgian Congo (thanks)
Government Officials of The Ugandan Protectorate (thanks)
Government of Burundi (thanks)
Government of Kenya (thanks)
Government of Rhodesia (thanks)
Government of Rwanda (thanks)
People and Government of Zambia, The (thanks)
Radio Bantu (soundtrack)
The Government of Tanzania (thanks)
Качество: VHSRip+WEB-Rip
Формат: AVI
Видео: DivX-5 720х576(5:4) 1925kbps 25fps
Аудио: 1. Russ.: MPEG Audio Version 1 Layer 3 128kbps 48kHz 2ch
2. Engl.+Russ.: MPEG Audio Version 1 Layer 3 128kbps 48kHz 2ch
Код: Выделить всё
Общее
Полное имя                               : I:\Африканское сафари (Р.Шанин.1968)_1,44.DivX\African safari.avi
Формат                                   : AVI
Формат/Информация                        : Audio Video Interleave
Размер файла                             : 1,44 Гбайт
Продолжительность                        : 1 ч. 34 м.
Общий поток                              : 2196 Кбит/сек
Программа кодирования                    : VirtualDubMod 1.5.10.2 (build 2540/release)
Библиотека кодирования                   : VirtualDubMod build 2540/release
Видео
Идентификатор                            : 0
Формат                                   : MPEG-4 Visual
Параметр BVOP формата                    : 1
Параметр QPel формата                    : Нет
Параметр GMC формата                     : Без точки перехода
Параметр матрицы формата                 : Default (H.263)
Идентификатор кодека                     : DX50
Идентификатор кодека/Подсказка           : DivX 5
Продолжительность                        : 1 ч. 34 м.
Битрейт                                  : 1925 Кбит/сек
Ширина                                   : 720 пикселей
Высота                                   : 576 пикселей
Соотношение сторон                       : 5:4
Частота кадров                           : 25,000 кадров/сек
Стандарт вещания                         : PAL
Цветовое пространство                    : YUV
Субдискретизация насыщенности            : 4:2:0
Битовая глубина                          : 8 бит
Тип развёртки                            : Прогрессивная
Метод сжатия                             : С потерями
Бит/(Пиксели*Кадры)                      : 0.186
Размер потока                            : 1,27 Гбайт (88%)
Библиотека кодирования                   : DivX 3013
Аудио #1
Идентификатор                            : 1
Формат                                   : MPEG Audio
Версия формата                           : Version 1
Профиль формата                          : Layer 3
Режим                                    : Joint stereo
Расширение режима                        : MS Stereo
Идентификатор кодека                     : 55
Идентификатор кодека/Подсказка           : MP3
Продолжительность                        : 1 ч. 34 м.
Вид битрейта                             : Постоянный
Битрейт                                  : 128 Кбит/сек
Каналы                                   : 2 канала
Частота                                  : 48,0 КГц
Метод сжатия                             : С потерями
Размер потока                            : 86,2 Мбайт (6%)
Выравнивание                             : Разделение по промежуткам
Продолжительность промежутка             : 40  мс. (1,00 видеокадр)
Время предзагрузки промежутка            : 500  мс.
Аудио #2
Идентификатор                            : 2
Формат                                   : MPEG Audio
Версия формата                           : Version 1
Профиль формата                          : Layer 3
Режим                                    : Joint stereo
Расширение режима                        : MS Stereo
Идентификатор кодека                     : 55
Идентификатор кодека/Подсказка           : MP3
Продолжительность                        : 1 ч. 34 м.
Вид битрейта                             : Постоянный
Битрейт                                  : 128 Кбит/сек
Каналы                                   : 2 канала
Частота                                  : 48,0 КГц
Метод сжатия                             : С потерями
Размер потока                            : 86,2 Мбайт (6%)
Выравнивание                             : Разделение по промежуткам
Продолжительность промежутка             : 40  мс. (1,00 видеокадр)
Время предзагрузки промежутка            : 500  мс.
 
Не забывайте говорить Спасибо. Не уходите с раздачи!   
Торрент: Зарегистрирован [03 янв 2018, 21:58] Для скачивания .torrent
необходима регистрация
Или скачать с помощью
MediaGet
Статус:
Проверен
 
.torrent скачан: 0 раз
Хэш: 8560729239980ce203dcaa03fb0d6ada68e6bff5
Размер: 1.44 ГБ (1 549 652 092 байт)
Стать Автором раздачи
 
 
Раздал: 0 байт
Скачал: 0 байт
Ратио: Inf.
Сообщения: 439785
Зарегистрирован: 17 апр 2014, 13:57


  • Похожие торренты
    Ответы
    Просмотры
    Последнее сообщение

Вернуться в Флора и фауна (видео)

Ресурс не предоставляет электронные версии произведений, а занимается лишь коллекционированием и каталогизацией ссылок, присылаемых и публикуемых на форуме нашими читателями. Если вы являетесь правообладателем какого-либо представленного материала и не желаете чтобы ссылка на него находилась в нашем каталоге, свяжитесь с нами и мы незамедлительно удалим её. Файлы для обмена на трекере предоставлены пользователями сайта, и администрация не несёт ответственности за их содержание. Просьба не заливать файлы, защищенные авторскими правами, а также файлы нелегального содержания!
cron