Мой Небольшой Пони: Кинцо / My Little Pony The Movie (Jayson Thiessen, Agent DieGo) [2017 / 2018, Мультфильм, комедия, смешная озвучка, VHSRip]

 
 Статистика раздачи 
Размер: 705.88 МБ   |  Зарегистрирован: 03 янв 2018, 19:37   |   .torrent скачан: 0 раз
Сидеров: 1  [ 0 байт/сек ]     Личеров: 0  [ 0 байт/сек ]  
  

Мой Небольшой Пони: Кинцо / My Little Pony The Movie (Jayson Thiessen, Agent DieGo) [2017 / 2018, Мультфильм, комедия, смешная озвучка, VHSRip]

Сообщение Nakazhu » 03 янв 2018, 19:38

Мой Небольшой Пони: Кинцо / My Little Pony The Movie
Дата/Год выпуска: 2017 / 2018
Страна: США / Россия
Жанр: Мультфильм, комедия, смешная озвучка
Продолжительность: 01:39:25
Перевод: Авторский (одноголосый закадровый)
Русские субтитры: нет
Режиссер: Jayson Thiessen, Agent DieGo
Описание: В радужную жизнь небольших поняшек врывается новый засранец: Царь Буран, внося смуту в повседневные чаепития. Сможет ли шестерка пони одолеть негодяя?
Доп. информация: Другие мои работы:
Ледниковый период: Дорога в Бобруйск
Ледниковый период 2: Титаник
Ледниковый период 3: Доктор Штоа
Мой Небольшой Пони: Дружба Волшебная. Сезон 3
Мой Небольшой Пони: Дружба Волшебная. Сезон 1
Мой Небольшой Пони: Эквестрийские Бабоньки
Мой Небольшой Пони: Дружба Волшебная. Сезон 2
Мой Небольшой Пони: Дружба Волшебная. Сезон 4
Мой Небольшой Пони: Дружба Волшебная. Сезон 5
Эквестрийские Бабоньки 2: Понетки
Эквестрийские Бабоньки 3: Игра в Бирюльки
Эквестрийские Бабоньки 4: Байки из Леса
Сэмпл: http://sendfile.su/1388804
качество: VHSRip
формат: MKV
Видео: MPEG4 Video (H264) 704x400 25fps [V: h264 constrained baseline L3.0, yuv420p, 704x400 [default]]
Аудио: MP3 44100Hz stereo 192kbps [A: mp3, 44100 Hz, stereo, 192 kb/s [default]]
Код: Выделить всё
General
Unique ID                   : 124317290958284999653029657494803877334 (0x5D86A3AAE12F27A424D00AC8A32A8DD6)
Complete name               : F:\MLP\VHS\THE MOVIE\MNP_THE_MOVIE.mkv
Format                      : Matroska
Format version              : Version 2
File size                   : 706 MiB
Duration                    : 1h 39mn
Overall bit rate            : 993 Kbps
Encoded date                : UTC 2018-01-03 14:32:01
Writing application         : Lavf53.18.0
Writing library             : Lavf53.18.0 / Lavf53.18.0
Video
ID                          : 1
Format                      : AVC
Format/Info                 : Advanced Video Codec
Format profile              : Baseline@L3
Format settings, CABAC      : No
Format settings, ReFrames   : 1 frame
Codec ID                    : V_MPEG4/ISO/AVC
Duration                    : 1h 39mn
Bit rate                    : 800 Kbps
Width                       : 704 pixels
Height                      : 400 pixels
Display aspect ratio        : 16:9
Frame rate mode             : Constant
Frame rate                  : 25.000 fps
Color space                 : YUV
Chroma subsampling          : 4:2:0
Bit depth                   : 8 bits
Scan type                   : Progressive
Bits/(Pixel*Frame)          : 0.114
Stream size                 : 555 MiB (79%)
Writing library             : x264 core 119
Encoding settings           : cabac=0 / ref=1 / deblock=1:0:0 / analyse=0x1:0x1 / me=dia / subme=1 / psy=1 / psy_rd=1.00:0.00 / mixed_ref=0 / me_range=16 / chroma_me=1 / trellis=0 / 8x8dct=0 / cqm=0 / deadzone=21,11 / fast_pskip=1 / chroma_qp_offset=0 / threads=4 / sliced_threads=0 / nr=0 / decimate=1 / interlaced=0 / bluray_compat=0 / constrained_intra=0 / bframes=0 / weightp=0 / keyint=250 / keyint_min=25 / scenecut=40 / intra_refresh=0 / rc=abr / mbtree=0 / bitrate=800 / ratetol=1.0 / qcomp=0.60 / qpmin=0 / qpmax=69 / qpstep=4 / ip_ratio=1.40 / aq=1:1.00
Language                    : English
Default                     : Yes
Forced                      : No
Encoded date                : UTC 2018-01-03 14:32:01
HANDLER_NAME                : Video Media Handler
Audio
ID                          : 2
Format                      : MPEG Audio
Format version              : Version 1
Format profile              : Layer 3
Mode                        : Joint stereo
Mode extension              : MS Stereo
Codec ID                    : A_MPEG/L3
Codec ID/Hint               : MP3
Duration                    : 1h 39mn
Bit rate mode               : Constant
Bit rate                    : 192 Kbps
Channel(s)                  : 2 channels
Sampling rate               : 44.1 KHz
Compression mode            : Lossy
Stream size                 : 137 MiB (19%)
Writing library             : LAME3.99.5
Language                    : English
Default                     : Yes
Forced                      : No
Encoded date                : UTC 2018-01-03 14:32:01
HANDLER_NAME                : Sound Media Handler
 
Не забывайте говорить Спасибо. Не уходите с раздачи!   
Торрент: Зарегистрирован [03 янв 2018, 19:37] Скачать торрент
Скачать торрент
[ Размер 28.01 КБ / Просмотров 22 ]
Статус:
Проверен
 
.torrent скачан: 0 раз
Хэш: cdbea7371f706aa6afdec6b203fbf79322aadd5b
Размер: 705.88 МБ (740 164 959 байт)
Стать Автором раздачи
 
 
Раздал: 0 байт
Скачал: 0 байт
Ратио: Inf.
Сообщения: 487468
Зарегистрирован: 17 апр 2014, 13:57


  • Похожие торренты
    Ответы
    Просмотры
    Последнее сообщение

Вернуться в Фильмы со смешным переводом (пародии)

Ресурс не предоставляет электронные версии произведений, а занимается лишь коллекционированием и каталогизацией ссылок, присылаемых и публикуемых на форуме нашими читателями. Если вы являетесь правообладателем какого-либо представленного материала и не желаете чтобы ссылка на него находилась в нашем каталоге, свяжитесь с нами и мы незамедлительно удалим её. Файлы для обмена на трекере предоставлены пользователями сайта, и администрация не несёт ответственности за их содержание. Просьба не заливать файлы, защищенные авторскими правами, а также файлы нелегального содержания!
cron