Позиция с Игорем Стрелковым (79 выпусков) (Канал "Рой ТВ") [2015-2017, Познавательно-патриотический, WEBRip]

 
 Статистика раздачи 
Размер: 22.39 ГБ   |  Зарегистрирован: 28 дек 2017, 22:01   |   .torrent скачан: 0 раз
Сидеров: 1  [ 0 байт/сек ]     Личеров: 0  [ 0 байт/сек ]  
  

Позиция с Игорем Стрелковым (79 выпусков) (Канал "Рой ТВ") [2015-2017, Познавательно-патриотический, WEBRip]

Сообщение Nakazhu » 28 дек 2017, 22:01

Позиция с Игорем Стрелковым
Дата/Год выпуска: 22.06.15; 24.06.15; 21.08.15; 03.09.15; 29.09.15; 16.10.15; 03.11.15; 15.11.15; 24.11.15; 28.11.15; 30.11.15; 16.12.15; 23.12.15; 06.01.16; 15.01.16; 24.01.16; 27.01.16; 30.01.16; 10.02.16; 25.02.16; 06.03.16; 07.03.16; 18.03.16; 24.03.16; 10.04.16; 19.04.16; 21.04.16; 03.05.16; 23.05.16; 31.05.16; 08.06.16; 15.06.16; 06.07.16; 12.07.16; 16.07.16; 20.07.16; 02.08.16; 24.08.16; 21.09.16; 30.09.16; 17.10.16; 19.10.16; 26.10.16; 04.11.16; 14.11.16; 26.11.16; 20.12.16; 31.12.16; 22.01.17; 07.02.17; 13.02.17; 03.03.17; 10.03.17; 05.04.17; 07.04.17; 06.05.17; 11.05.17; 06.06.17; 14.06.17; 27.06.17; 05.07.17; 07.07.17; 20.07.17; 21.07.17; 24.07.17; 30.07.17; 05.09.17; 26.09.17; 02.09.17; 17.10.17; 18.10.17; 20.10.17; 24.10.17; 29.10.17; 10.11.17; 22.11.17; 24.11.17; 12.12.17; 16.12.17
Страна: Россия
Жанр: Познавательно-патриотический
Продолжительность: 00:12:06 + 00:36:21 + 00:51:12 + 00:29:01 + 00:42:10 + 01:17:40 + 00:36:22 + 00:10:43 + 00:04:59 + 00:09:34 + 00:05:37 + 00:13:38 + 00:22:28 + 00:01:43 + 00:20:03 + 00:19:37 + 00:03:20 + 00:47:08 + 00:09:23 + 00:02:03 + 00:01:59 + 00:23:11 + 00:06:13 + 00:06:25 + 00:32:41 + 00:03:54 + 00:05:27 + 00:04:46 + 00:11:05 + 00:03:59 + 00:03:02 + 00:04:20 + 00:04:13 + 00:26:06 + 00:02:55 + 00:41:45 + 00:03:41 + 00:18:00 + 00:14:04 + 00:33:09 + 00:20:14 + 00:02:35 + 00:28:47 + 00:05:59 + 00:42:28 + 00:41:04 + 00:23:56 + 00:03:52 + 00:46:12 + 00:41:25 + 00:05:23 + 00:17:35 + 00:35:04 + 00:08:20 + 00:39:41 + 00:37:00 + 00:05:38 + 00:28:25 + 01:58:40 + 00:03:18 + 00:06:51 + 00:20:14 + 00:09:30 + 01:22:09 + 00:43:39 + 00:03:03 + 00:30:42 + 00:11:26 + 00:07:55 + 00:03:27 + 00:06:29 + 00:41:26 + 00:07:50 + 00:02:04 + 00:48:44 + 00:04:31 + 01:15:29 + 00:40:41 + 00:05:45
Перевод: Не требуется
Русские субтитры: нет
Оригинальная аудиодорожка: русский
Режиссер: Канал "Рой ТВ"
Описание: Экс-МО ДНР, руководитель ОД "Новороссия" и К25 Игорь Стрелков делится мыслями о подоплеке событий. Ведущий - Максим Калашников.
Доп. информация: С модератором согласовано как некондиция.
1) Украинская торпеда
Стрелков рассказывает о том, почему вдруг извлекли преступления самостийного тербата «Торнадо», а в Киеве заговорили о том, что великороссы и украинцы – один народ.
2) Как будут валить Россию?
Стрелков рассуждает о том, что не ядервойна сейчас – самая главная опасность. А то, что в РФ почти полностью повторяется история РИ в канун февраля 1917 года. Что делать?
3) Донбасс и РФ накануне новой войны
Стрелков рассуждает о том, какие изменения произошли в Новороссии между августами 2014 и 2015. Усилились или ослабли ВСН? Чем ВСН напоминают ВС РФ в Чечне 1995? Почему Донецк и Горловка избиваются артиллерией карателей, а ее не могут подавить? Возможно ли наступление из донбасского котла? Кремль между Минском-3 и необходимостью молниеносного принуждения Киева к миру.
4) РФ в Донбассе - игра с разменом фигур
Чем грозит введение чрезвычайного положения в РФ при сохранении нынешнего господства сислибов-монетаристов в правительстве и ЦБ? К тому же бардаку, что наблюдается в ДНР и ЛНР. Если Москва справится с наведением порядка в Донбассе, то сможет справиться и с системным кризисом в РФ. Но это реально? И почему идет игра с ненужным разменом фигур? Рассуждает Игорь Стрелков.
5) Сирия уже за красной чертой
Стрелков рассуждает о том, что власть перешла красную черту. На фоне корчащейся, слабой, сырьевой экономики она влезает в войну на трех фронтах. Зачем нам Сирия? Невыученные уроки Наполеона III и советско-польской войны 1920. Впечатления от речи на ГА ООН.
6) Странная война
Круглый стол в студии - Игорь Стрелков, Эль Мюрид, Алексей Сороковой.
- Какие выгоды война в Сирии дает РФ с точки зрения экономических, военных и геополитических задач? Или невыгоды?
- Облегчит ли эта война положение не оккупированных частей Новороссии: Крыма, ДНР, ЛНР и ПМР?
- Может ли сирийская затея принести РФ мировое лидерство и европейскую гегемонию?
7) Кто и как загнал РФ в Сирию?
Почему Москва теперь вынуждена воевать в Сирии? Наши эксперты: лидер ОД «Новороссия» Игорь Стрелков и академик РАН Сергей Глазьев. Можно ли выиграть войну в Сирии? Чем она отличается от войн в Афганистане и Чечне? За какое «нежное место» взяли РФ хозяева Запада, вынудив отказаться от Новороссии и втравиться в сирийскую трясину? Чего стоят официальные объяснения смысла этой авантюры?
8) Терроровойна в РФ
Репортаж об общественном антитеррористическом форуме, созванном СВОД и казачьими организациями. После вхождения РФ в сирийскую войну неизбежны террористические атаки на нее. Но только ли они? В какую ситуацию мы попали? Опасное положение. Началась раскачка РФ. Мнение Игоря Стрелкова.
9) Бунт дальнобойщиков - что делать
Почему взбунтовались водители большегрузов? О факторе Ротенбергов, налоге откупщиков, «свинье» правительства для Путина и национализации государства. Почему ЕР в ГД саботирует работу с дальнобойщиками? Правда ли, что государству не хватает средств на дорожную сеть? Наш эксперт - Игорь Стрелков.
10) От Майдана до заката
Каковы явные и скрытые причины Майдана? Его последствия для Украины и РФ, об этом, во вторую годовщину Майдана, рассуждает Игорь Стрелков.
11) Донбасс - в комплексном кризисе!
ДНР и ЛНР – в условиях жесточайшего комплексного кризиса. Что делать? Почему Донбасс придется включать в состав РФ? Мнение Игоря Стрелкова.
12) К визиту госсека Керри
Игорь Стрелков разбирает визит госсека США в РФ. Сильный запах горбачевщины. В ожидании неминуемого «момента истины» - когда слетит «фиговый листок» минских соглашений.
13) О госпитале и пятой колонне
Почему в ДНР закрыли Первый донецкий госпиталь добровольцев? Тень Ахметова. Выживаемые прочь ополченцы-идеалисты. Страшная участь тех, кого в РФ не признают русскими. В студии – Михаил Шатохин (Беркут) и Игорь Стрелков.
14) Рождественское поздравление
Стрелков поздравляет зрителей канала и своих сторонников с наступающим Рождеством Христовым и Новым годом.
15) Не ищите масонов в Кельне
Стрелков рассуждает о сексуальных нападениях мигрантов в Кельне и Германии вообще. Как организовать новое Великое переселение народов и чем элита ЕС смахивает на ее аналог в позднем Риме?
16) О продлении Минских соглашений
=Стрелков рассуждает о том, что принесло Москве продление Минского позорища еще на год? Когда стишок Маршака – в кассу. О гипотетической войне с Турцией.
17) Кердык Америки РФ не спасёт
О прогнозе датского «Саксо-банка» о том, что в 2016 в США разразится сильнейший финансовый кризис, который снова перекинется на весь мир. Впрочем, новая волна глобокризиса уже началась. Но поможет ли это Москве?
18) ''Комитет 25 января'': третья сила!
В студии Эдуард Лимонов и Игорь Стрелков. О целях и задачах Третьей силы - К25. Как мы намерены работать? И почему уже вызвали дикую ненависть как бандеровцев, так и платных «патриотов» в РФ?
19) Игорь Стрелков и «Комитет 25 января» предупреждают
Репортаж о 2-м заседании К25. Почему положение группировки ВС РФ в Сирии опасно походит на положение немецких войск в Тунисе очень 1942? Работа К25 по выстраиванию сети местных филиалов. Наша 1-ая резолюция.
20) Комитет ''25 января'' - о первой акции 5 апреля
Стрелков о грядущей акции 5 апреля при поддержке К25 – Дне русской нации.
21) ''Комитет 2501'' - работа продолжается
Репортаж – краткий отчет по пятому заседанию К25. Игорь Стрелков о том, как спасать тех, кто взят в плен киевскими карателями и политзаключенных на Украине, особенно – граждан РФ.
22) Если идти - то до конца
Стрелков рассуждает о том, что трудности на пути К25 были неизбежными. Отсеивается то, что должно было отсеяться. Почему Эдуард Лимонов говорил об одном, а поступил наоборот? Планы К25 на ближайшее будущее.
23) О Сирии и Донбассе
Стрелков рассуждает о поспешном уходе Москвы из Сирии и «неизвестной войне» в Донбассе.
24) Доклад на МЭФ
Репортаж с Московского экономического форума под председательством К.А. Бабкина. Игорь Стрелков рассказывает о создании К25 и его целях.
25) О чём говорит создание Нацгвардии
Рассуждения главы Комитета 25 января Игоря Стрелкова о том, что означает создание так называемой Нацгвардии. Удастся ли спастись с помощью чистой силы, если экономический тыл открыт ударам противника, а кризис в стране нарастает?
26) Против выдающейся подлости
Выступление Игоря Стрелкова на пресс-конференции К25 о том, что Кремль нарушил свои обещания весны 2014 и бросил на произвол судьбы полторы тысячи человек, брошенных в застенки СБУ. Как ФМС работает пособницей небандеровской СБУ. Как заставить власть выполнить свои посулы и намеки времен эйфории – весны 2014?
27) История - самая политическая наука
В поле зрения Игоря Стрелкова: передача Росархива в ведение Президента, референдум в Голландии, обмен военнопленных и политзаключенных.
28) Помни Одессу!
Репортаж «Рой ТВ» о траурном митинге, организованном К25 в память мучеников Новороссии и Русской Весны в Одессе. Вступительное выступление Игоря Стрелкова.
29) О Нуланд, Сурко-Бородае и укробезумии
Глава К25 Игорь Стрелков - о том:
- зачем в Москву приезжала Нуланд;
- зачем Сурков с Бородаем затеяли создание частной военной компании в тылу ДНР;
- с какой радости Горбачев заделался ярым сторонником присоединения Крыма;
- чем болен крымский укродепутат Сенченко, предложивший после возвращения Крыма Украине в суточный срок депортировать с полуострова всех, кто появился на нем после 20.02.14;
- о противостоянии "Меняйло-Чалый" в Севастополе.
30) От «К25» – к Движению Игоря Стрелкова
Репортаж Максима Калашникова о заседании К25. Как принималось решение о переименовании К25 в ОНД под управлением Игоря Стрелкова и декларация ОНД. Выступление и разъяснение Игоря Стрелкова.
31) Кого забыли обменять на Савченко
Стрелков рассуждает о том, кого Москва забыла обменять на бандеровку Савченко? О брошенных Кремлем гражданах РФ на Украине.
32) О спущенном триколоре в Киеве
Стрелков рассуждает о том, почему посольство РФ в Киеве спустило флаг.
33) О забавах выпускников академии ФСБ
Офицер ФСБ в отставке и лидер К25 Игорь Стрелков о выходке юных бойцов невидимого фронта. Что показал сей клинический случай?
34) Кризис, силовики и Путин
Стрелков рассуждает о том, что ждать в нынешней ситуации от силовых структур и Путина?
35) СССР - виновник волынской резни, считают поляки
Стрелков комментирует заявление министра обороны Польши, который считает, что "советы" виноваты в Волынской резне.
36) Позор бездействия
Игорь Стрелков рассуждает о том, что к лету 2016 года кризис в РФ «пробил» очередной рубеж. Теперь власть практически открыто вымаливает у Запада почетные условия сдачи. Она бездействует и теряет время в самый ответственный момент. Но почетной сдачи не будет…
37) Грянет ли гражданская война в США?
Стрелков рассуждает о мечтах насчет расовой войны в Америке. Обоснованы ли горячечные грезы некоторых официозных пропагандистов?
38) Кровавое воскресенье лайт
Тракторный марш кубанских фермеров как свидетельство перерастания управленческого и экономического кризиса в РФ в политический. Почему люди восстают? Рассуждает Игорь Стрелков. Заговор в верхушке РФ против Путина – уже факт. Что дальше? Майданная дорога…
39) О фарсе ''выборов'' и Обаме
В поле зрения Игоря Стрелкова прошедшие «выборы» и страхи Обамы.
40) Курилы и «дипломатия бессилия»
Беседа Игоря Стрелкова о том, как понимать готовящуюся «Курильскую сделку» между Москвой и Токио? Почему мы видим крах внешней политики РФ, все более напоминающей «новое мышление» Горбачева? К25 предлагает всем патриотическим организациям: давайте обсудим акции протеста в случае передачи Японии Южных Курил. Готовиться лучше заранее.
41) Кто убил Моторолу?
Стрелков вспоминает своего боевого товарища Арсения Павлова, версии теракта и его последствия.
42) Порошенко торгует ''бички'' мадам Меркель
Стрелков рассуждает о психотипе Порошенко и украинских политиков.
43) Принуждение к перевороту
Стрелков рассуждает о том, что угрозы ядерной войны между РФ и США нет. Есть совсем иная угроза. Перед коей власть выказывает полное бессилие.
44) Поддержи русских узников!
Митинг русской солидарности на площади Суворова. Мнение Игоря Стрелкова.
45) Всё от Трампе
Стрелков анализирует возможность смены политического курса РФ в связи с избранием президентом США Трампа.
46) Почему скончались и ''революция достоинства'', и Русская весна
Стрелков анализирует причины относительной проигрышности (на данный момент) народного восстания на Донбассе.
47) Прерванный эфир по Южным Курилам
Стрелков рассуждают о странных внешнеполитических шагах Кремля в Японии (переговоры по ЮК). Но пришлось говорить и по убийству посла РФ Карлова в Турции, и по ситуации под Дебальцево.
48) Новогоднее поздравление
Игорь Стрелков поздравляет с Новым годом. Съемка Максима Калашникова.
49) Италия и РФ – мистическая связь
Игорь Стрелков рассуждает о том, почему нынешняя РФ старается походить на Италию.
50) Момент истины на Донбассе
Игорь Стрелков обсуждает нынешнюю войну в Донбассе. Итак, жевать сопли «минских соглашений» уже невозможно. Либо РФ поможет ЛНР и ДНР открыто, признав их и приняв в свой состав, либо потерпит поражение. Стоит ли нам бояться западных санкций и какую свинью Кремлю подкладывает Трамп? По телефону – спецкор КП Александр Коц.
51) Донбасс – не Крым, говорите
Игорь Стрелков раскрывает некоторые тайны референдума мая 2014 года.
52) Отповедь Соловьеву, Кургиняну и Кофману
Игорь Стрелков рассуждает о причинах беснования по его поводу среди «русских стратегов» и выдающихся полководцев с телевидения. Так кто же струсил и кто кого бросил-то?
53) Второго шанса на Украине нет
Игорь Стрелков рассуждает о том, появился ли второй шанс Москвы на Украине? В связи с перерезанием добробатами укронацистов транспортного сообщения с ДНР и ЛНР? Расчеты и просчеты опереточных «стратегов». «Национализация» в ДНР: полная липа.
54) Протесты в Москве. Майдан по-корейски
Игорь Стрелков рассуждает об иллюзиях столичных хипстеров и студентов относительно революции.
55) Послаблений от Вашингтона не будет
Игорь Стрелков рассуждает на темы:
- Депрессия в Москве после того, как Трамп оказался не наш.
- Откуда растут уши 26.03?
- Кто несет ответственность за теракт в СПб?
- К25 перед выбором.
Сэмпл: http://multi-up.com/1165345
Качество: WEBRip
Формат: AVI
Видео: 720*400 (16:9), 25,000 кадров/сек, XviD
Аудио: Русский, 96,0 Кбит/сек, 44,1 КГц, 2 канала, MP3
Код: Выделить всё
Общее
Полное имя                               : E:\MONAR\Видео\Познавательные фильмы\22.06.15. Украинская торпеда.avi
Формат                                   : AVI
Формат/Информация                        : Audio Video Interleave
Размер файла                             : 175 Мбайт
Продолжительность                        : 12 м.
Общий поток                              : 2027 Кбит/сек
Видео
Идентификатор                            : 0
Формат                                   : MPEG-4 Visual
Профиль формата                          : Advanced Simple@L5
Параметр BVOP формата                    : 2
Параметр QPel формата                    : Нет
Параметр GMC формата                     : Без точки перехода
Параметр матрицы формата                 : Выборочная
Идентификатор кодека                     : XVID
Идентификатор кодека/Подсказка           : XviD
Продолжительность                        : 12 м.
Битрейт                                  : 1921 Кбит/сек
Ширина                                   : 720 пикселей
Высота                                   : 400 пикселей
Соотношение сторон                       : 16:9
Частота кадров                           : 25,000 кадров/сек
Цветовое пространство                    : YUV
Субдискретизация насыщенности            : 4:2:0
Битовая глубина                          : 8 бит
Тип развёртки                            : Прогрессивная
Метод сжатия                             : С потерями
Бит/(Пиксели*Кадры)                      : 0.267
Размер потока                            : 166 Мбайт (95%)
Библиотека кодирования                   : XviD 1.2.1 (UTC 2008-12-04)
Аудио
Идентификатор                            : 1
Формат                                   : MPEG Audio
Версия формата                           : Version 1
Профиль формата                          : Layer 3
Идентификатор кодека                     : 55
Идентификатор кодека/Подсказка           : MP3
Продолжительность                        : 12 м.
Продолжительность оригинала              : 12 м.
Вид битрейта                             : Постоянный
Битрейт                                  : 96,0 Кбит/сек
Каналы                                   : 2 канала
Частота                                  : 44,1 КГц
Метод сжатия                             : С потерями
Размер потока                            : 8,31 Мбайт (5%)
Выравнивание                             : Соединение по промежуткам
Продолжительность промежутка             : 40  мс. (1,00 видеокадр)
Код: Выделить всё
Общее
Полное имя                               : E:\MONAR\Видео\Познавательные фильмы\Позиция с Игорем Стрелковым\24.06.15. Как будут валить Россию.avi
Формат                                   : AVI
Формат/Информация                        : Audio Video Interleave
Размер файла                             : 639 Мбайт
Продолжительность                        : 36 м.
Общий поток                              : 2457 Кбит/сек
Видео
Идентификатор                            : 0
Формат                                   : MPEG-4 Visual
Профиль формата                          : Advanced Simple@L5
Параметр BVOP формата                    : 2
Параметр QPel формата                    : Нет
Параметр GMC формата                     : Без точки перехода
Параметр матрицы формата                 : Выборочная
Идентификатор кодека                     : XVID
Идентификатор кодека/Подсказка           : XviD
Продолжительность                        : 36 м.
Битрейт                                  : 2352 Кбит/сек
Ширина                                   : 720 пикселей
Высота                                   : 400 пикселей
Соотношение сторон                       : 16:9
Частота кадров                           : 25,000 кадров/сек
Цветовое пространство                    : YUV
Субдискретизация насыщенности            : 4:2:0
Битовая глубина                          : 8 бит
Тип развёртки                            : Прогрессивная
Метод сжатия                             : С потерями
Бит/(Пиксели*Кадры)                      : 0.327
Размер потока                            : 611 Мбайт (96%)
Библиотека кодирования                   : XviD 1.2.1 (UTC 2008-12-04)
Аудио
Идентификатор                            : 1
Формат                                   : MPEG Audio
Версия формата                           : Version 1
Профиль формата                          : Layer 3
Идентификатор кодека                     : 55
Идентификатор кодека/Подсказка           : MP3
Продолжительность                        : 36 м.
Продолжительность оригинала              : 36 м.
Вид битрейта                             : Постоянный
Битрейт                                  : 96,0 Кбит/сек
Каналы                                   : 2 канала
Частота                                  : 44,1 КГц
Метод сжатия                             : С потерями
Размер потока                            : 25,0 Мбайт (4%)
Выравнивание                             : Соединение по промежуткам
Продолжительность промежутка             : 40  мс. (1,00 видеокадр)
Код: Выделить всё
Общее
Полное имя                               : E:\MONAR\Видео\Познавательные фильмы\Позиция с Игорем Стрелковым\21.08.15 Донбасс и РФ накануне новой войны.avi
Формат                                   : AVI
Формат/Информация                        : Audio Video Interleave
Размер файла                             : 423 Мбайт
Продолжительность                        : 52 м.
Общий поток                              : 1116 Кбит/сек
Видео
Идентификатор                            : 0
Формат                                   : MPEG-4 Visual
Профиль формата                          : Advanced Simple@L5
Параметр BVOP формата                    : 2
Параметр QPel формата                    : Нет
Параметр GMC формата                     : Без точки перехода
Параметр матрицы формата                 : Выборочная
Идентификатор кодека                     : XVID
Идентификатор кодека/Подсказка           : XviD
Продолжительность                        : 51 м.
Битрейт                                  : 1046 Кбит/сек
Ширина                                   : 720 пикселей
Высота                                   : 400 пикселей
Соотношение сторон                       : 16:9
Частота кадров                           : 25,000 кадров/сек
Цветовое пространство                    : YUV
Субдискретизация насыщенности            : 4:2:0
Битовая глубина                          : 8 бит
Тип развёртки                            : Прогрессивная
Метод сжатия                             : С потерями
Бит/(Пиксели*Кадры)                      : 0.145
Размер потока                            : 383 Мбайт (91%)
Библиотека кодирования                   : XviD 1.2.1 (UTC 2008-12-04)
Аудио
Идентификатор                            : 1
Формат                                   : MPEG Audio
Версия формата                           : Version 1
Профиль формата                          : Layer 3
Идентификатор кодека                     : 55
Идентификатор кодека/Подсказка           : MP3
Продолжительность                        : 52 м.
Продолжительность оригинала              : 52 м.
Вид битрейта                             : Постоянный
Битрейт                                  : 96,0 Кбит/сек
Каналы                                   : 2 канала
Частота                                  : 44,1 КГц
Метод сжатия                             : С потерями
Размер потока                            : 36,4 Мбайт (9%)
Выравнивание                             : Соединение по промежуткам
Продолжительность промежутка             : 40  мс. (1,00 видеокадр)
Код: Выделить всё
Общее
Полное имя                               : E:\MONAR\Видео\Познавательные фильмы\Позиция с Игорем Стрелковым\03.09.15 РФ в Донбассе - игра с разменом фигур.avi
Формат                                   : AVI
Формат/Информация                        : Audio Video Interleave
Размер файла                             : 231 Мбайт
Продолжительность                        : 29 м.
Общий поток                              : 1111 Кбит/сек
Видео
Идентификатор                            : 0
Формат                                   : MPEG-4 Visual
Профиль формата                          : Advanced Simple@L5
Параметр BVOP формата                    : 2
Параметр QPel формата                    : Нет
Параметр GMC формата                     : Без точки перехода
Параметр матрицы формата                 : Выборочная
Идентификатор кодека                     : XVID
Идентификатор кодека/Подсказка           : XviD
Продолжительность                        : 29 м.
Битрейт                                  : 1002 Кбит/сек
Ширина                                   : 720 пикселей
Высота                                   : 400 пикселей
Соотношение сторон                       : 16:9
Частота кадров                           : 25,000 кадров/сек
Цветовое пространство                    : YUV
Субдискретизация насыщенности            : 4:2:0
Битовая глубина                          : 8 бит
Тип развёртки                            : Прогрессивная
Метод сжатия                             : С потерями
Бит/(Пиксели*Кадры)                      : 0.139
Размер потока                            : 208 Мбайт (90%)
Библиотека кодирования                   : XviD 1.2.1 (UTC 2008-12-04)
Аудио
Идентификатор                            : 1
Формат                                   : MPEG Audio
Версия формата                           : Version 1
Профиль формата                          : Layer 3
Идентификатор кодека                     : 55
Идентификатор кодека/Подсказка           : MP3
Продолжительность                        : 29 м.
Продолжительность оригинала              : 29 м.
Вид битрейта                             : Постоянный
Битрейт                                  : 96,0 Кбит/сек
Каналы                                   : 2 канала
Частота                                  : 44,1 КГц
Метод сжатия                             : С потерями
Размер потока                            : 19,9 Мбайт (9%)
Выравнивание                             : Разделение по промежуткам
Продолжительность промежутка             : 26  мс. (0,65 видеокадр)
Код: Выделить всё
Общее
Полное имя                               : E:\MONAR\Видео\Познавательные фильмы\Позиция с Игорем Стрелковым\29.09.15 Сирия уже за красной чертой.avi
Формат                                   : AVI
Формат/Информация                        : Audio Video Interleave
Размер файла                             : 632 Мбайт
Продолжительность                        : 42 м.
Общий поток                              : 2097 Кбит/сек
Видео
Идентификатор                            : 0
Формат                                   : MPEG-4 Visual
Профиль формата                          : Advanced Simple@L5
Параметр BVOP формата                    : 2
Параметр QPel формата                    : Нет
Параметр GMC формата                     : Без точки перехода
Параметр матрицы формата                 : Выборочная
Идентификатор кодека                     : XVID
Идентификатор кодека/Подсказка           : XviD
Продолжительность                        : 42 м.
Битрейт                                  : 1956 Кбит/сек
Ширина                                   : 720 пикселей
Высота                                   : 400 пикселей
Соотношение сторон                       : 16:9
Частота кадров                           : 25,000 кадров/сек
Цветовое пространство                    : YUV
Субдискретизация насыщенности            : 4:2:0
Битовая глубина                          : 8 бит
Тип развёртки                            : Прогрессивная
Метод сжатия                             : С потерями
Бит/(Пиксели*Кадры)                      : 0.272
Размер потока                            : 590 Мбайт (93%)
Библиотека кодирования                   : XviD 1.2.1 (UTC 2008-12-04)
Аудио
Идентификатор                            : 1
Формат                                   : MPEG Audio
Версия формата                           : Version 1
Профиль формата                          : Layer 3
Идентификатор кодека                     : 55
Идентификатор кодека/Подсказка           : MP3
Продолжительность                        : 42 м.
Продолжительность оригинала              : 42 м.
Вид битрейта                             : Постоянный
Битрейт                                  : 128 Кбит/сек
Каналы                                   : 2 канала
Частота                                  : 44,1 КГц
Метод сжатия                             : С потерями
Размер потока                            : 38,6 Мбайт (6%)
Выравнивание                             : Разделение по промежуткам
Продолжительность промежутка             : 26  мс. (0,65 видеокадр)
Код: Выделить всё
Общее
Полное имя                               : E:\MONAR\Видео\Познавательные фильмы\Позиция с Игорем Стрелковым\16.10.15 Странная война.avi
Формат                                   : AVI
Формат/Информация                        : Audio Video Interleave
Размер файла                             : 931 Мбайт
Продолжительность                        : 1 ч. 17 м.
Общий поток                              : 1675 Кбит/сек
Видео
Идентификатор                            : 0
Формат                                   : MPEG-4 Visual
Профиль формата                          : Advanced Simple@L5
Параметр BVOP формата                    : 2
Параметр QPel формата                    : Нет
Параметр GMC формата                     : Без точки перехода
Параметр матрицы формата                 : Выборочная
Идентификатор кодека                     : XVID
Идентификатор кодека/Подсказка           : XviD
Продолжительность                        : 1 ч. 17 м.
Битрейт                                  : 1567 Кбит/сек
Ширина                                   : 720 пикселей
Высота                                   : 400 пикселей
Соотношение сторон                       : 16:9
Частота кадров                           : 25,000 кадров/сек
Цветовое пространство                    : YUV
Субдискретизация насыщенности            : 4:2:0
Битовая глубина                          : 8 бит
Тип развёртки                            : Прогрессивная
Метод сжатия                             : С потерями
Бит/(Пиксели*Кадры)                      : 0.218
Размер потока                            : 870 Мбайт (94%)
Библиотека кодирования                   : XviD 1.2.1 (UTC 2008-12-04)
Аудио
Идентификатор                            : 1
Формат                                   : MPEG Audio
Версия формата                           : Version 1
Профиль формата                          : Layer 3
Идентификатор кодека                     : 55
Идентификатор кодека/Подсказка           : MP3
Продолжительность                        : 1 ч. 17 м.
Продолжительность оригинала              : 1 ч. 17 м.
Вид битрейта                             : Постоянный
Битрейт                                  : 96,0 Кбит/сек
Каналы                                   : 2 канала
Частота                                  : 44,1 КГц
Метод сжатия                             : С потерями
Размер потока                            : 53,3 Мбайт (6%)
Выравнивание                             : Разделение по промежуткам
Продолжительность промежутка             : 26  мс. (0,65 видеокадр)
Код: Выделить всё
Общее
Полное имя                               : E:\MONAR\Видео\Познавательные фильмы\Позиция с Игорем Стрелковым\03.11.15 Кто и как загнал РФ в Сирию.avi
Формат                                   : AVI
Формат/Информация                        : Audio Video Interleave
Размер файла                             : 569 Мбайт
Продолжительность                        : 36 м.
Общий поток                              : 2187 Кбит/сек
Видео
Идентификатор                            : 0
Формат                                   : MPEG-4 Visual
Профиль формата                          : Advanced Simple@L5
Параметр BVOP формата                    : 2
Параметр QPel формата                    : Нет
Параметр GMC формата                     : Без точки перехода
Параметр матрицы формата                 : Выборочная
Идентификатор кодека                     : XVID
Идентификатор кодека/Подсказка           : XviD
Продолжительность                        : 36 м.
Битрейт                                  : 2078 Кбит/сек
Ширина                                   : 720 пикселей
Высота                                   : 400 пикселей
Соотношение сторон                       : 16:9
Частота кадров                           : 25,000 кадров/сек
Цветовое пространство                    : YUV
Субдискретизация насыщенности            : 4:2:0
Битовая глубина                          : 8 бит
Тип развёртки                            : Прогрессивная
Метод сжатия                             : С потерями
Бит/(Пиксели*Кадры)                      : 0.289
Размер потока                            : 541 Мбайт (95%)
Библиотека кодирования                   : XviD 1.2.1 (UTC 2008-12-04)
Аудио
Идентификатор                            : 1
Формат                                   : MPEG Audio
Версия формата                           : Version 1
Профиль формата                          : Layer 3
Идентификатор кодека                     : 55
Идентификатор кодека/Подсказка           : MP3
Продолжительность                        : 36 м.
Продолжительность оригинала              : 36 м.
Вид битрейта                             : Постоянный
Битрейт                                  : 96,0 Кбит/сек
Каналы                                   : 2 канала
Частота                                  : 44,1 КГц
Метод сжатия                             : С потерями
Размер потока                            : 25,0 Мбайт (4%)
Выравнивание                             : Разделение по промежуткам
Продолжительность промежутка             : 26  мс. (0,65 видеокадр)
Код: Выделить всё
Общее
Полное имя                               : E:\MONAR\Видео\Познавательные фильмы\Позиция с Игорем Стрелковым\15.11.15 Терроровойна в РФ.avi
Формат                                   : AVI
Формат/Информация                        : Audio Video Interleave
Размер файла                             : 143 Мбайт
Продолжительность                        : 10 м.
Общий поток                              : 1868 Кбит/сек
Видео
Идентификатор                            : 0
Формат                                   : MPEG-4 Visual
Профиль формата                          : Advanced Simple@L5
Параметр BVOP формата                    : 2
Параметр QPel формата                    : Нет
Параметр GMC формата                     : Без точки перехода
Параметр матрицы формата                 : Выборочная
Идентификатор кодека                     : XVID
Идентификатор кодека/Подсказка           : XviD
Продолжительность                        : 10 м.
Битрейт                                  : 1762 Кбит/сек
Ширина                                   : 720 пикселей
Высота                                   : 400 пикселей
Соотношение сторон                       : 16:9
Частота кадров                           : 25,000 кадров/сек
Цветовое пространство                    : YUV
Субдискретизация насыщенности            : 4:2:0
Битовая глубина                          : 8 бит
Тип развёртки                            : Прогрессивная
Метод сжатия                             : С потерями
Бит/(Пиксели*Кадры)                      : 0.245
Размер потока                            : 135 Мбайт (94%)
Библиотека кодирования                   : XviD 1.2.1 (UTC 2008-12-04)
Аудио
Идентификатор                            : 1
Формат                                   : MPEG Audio
Версия формата                           : Version 1
Профиль формата                          : Layer 3
Идентификатор кодека                     : 55
Идентификатор кодека/Подсказка           : MP3
Продолжительность                        : 10 м.
Продолжительность оригинала              : 10 м.
Вид битрейта                             : Постоянный
Битрейт                                  : 96,0 Кбит/сек
Каналы                                   : 2 канала
Частота                                  : 44,1 КГц
Метод сжатия                             : С потерями
Размер потока                            : 7,35 Мбайт (5%)
Выравнивание                             : Соединение по промежуткам
Продолжительность промежутка             : 40  мс. (1,00 видеокадр)
Код: Выделить всё
Общее
Полное имя                               : E:\MONAR\Видео\Познавательные фильмы\Позиция с Игорем Стрелковым\24.11.15 Бунт дальнобойщиков - что делать.avi
Формат                                   : AVI
Формат/Информация                        : Audio Video Interleave
Размер файла                             : 85,6 Мбайт
Продолжительность                        : 4 м. 59 с.
Общий поток                              : 2396 Кбит/сек
Видео
Идентификатор                            : 0
Формат                                   : MPEG-4 Visual
Профиль формата                          : Advanced Simple@L5
Параметр BVOP формата                    : 2
Параметр QPel формата                    : Нет
Параметр GMC формата                     : Без точки перехода
Параметр матрицы формата                 : Выборочная
Идентификатор кодека                     : XVID
Идентификатор кодека/Подсказка           : XviD
Продолжительность                        : 4 м. 59 с.
Битрейт                                  : 2290 Кбит/сек
Ширина                                   : 720 пикселей
Высота                                   : 400 пикселей
Соотношение сторон                       : 16:9
Частота кадров                           : 25,000 кадров/сек
Цветовое пространство                    : YUV
Субдискретизация насыщенности            : 4:2:0
Битовая глубина                          : 8 бит
Тип развёртки                            : Прогрессивная
Метод сжатия                             : С потерями
Бит/(Пиксели*Кадры)                      : 0.318
Размер потока                            : 81,9 Мбайт (96%)
Библиотека кодирования                   : XviD 1.2.1 (UTC 2008-12-04)
Аудио
Идентификатор                            : 1
Формат                                   : MPEG Audio
Версия формата                           : Version 1
Профиль формата                          : Layer 3
Идентификатор кодека                     : 55
Идентификатор кодека/Подсказка           : MP3
Продолжительность                        : 4 м. 59 с.
Продолжительность оригинала              : 4 м. 59 с.
Вид битрейта                             : Постоянный
Битрейт                                  : 96,0 Кбит/сек
Каналы                                   : 2 канала
Частота                                  : 44,1 КГц
Метод сжатия                             : С потерями
Размер потока                            : 3,43 Мбайт (4%)
Выравнивание                             : Соединение по промежуткам
Продолжительность промежутка             : 40  мс. (1,00 видеокадр)
Код: Выделить всё
Общее
Полное имя                               : E:\MONAR\Видео\Познавательные фильмы\Позиция с Игорем Стрелковым\30.11.15 Донбасс - в комплексном кризисе!.avi
Формат                                   : AVI
Формат/Информация                        : Audio Video Interleave
Размер файла                             : 30,4 Мбайт
Продолжительность                        : 5 м. 37 с.
Общий поток                              : 756 Кбит/сек
Видео
Идентификатор                            : 0
Формат                                   : MPEG-4 Visual
Профиль формата                          : Advanced Simple@L5
Параметр BVOP формата                    : 2
Параметр QPel формата                    : Нет
Параметр GMC формата                     : Без точки перехода
Параметр матрицы формата                 : Выборочная
Идентификатор кодека                     : XVID
Идентификатор кодека/Подсказка           : XviD
Продолжительность                        : 5 м. 37 с.
Битрейт                                  : 650 Кбит/сек
Ширина                                   : 720 пикселей
Высота                                   : 400 пикселей
Соотношение сторон                       : 16:9
Частота кадров                           : 25,000 кадров/сек
Цветовое пространство                    : YUV
Субдискретизация насыщенности            : 4:2:0
Битовая глубина                          : 8 бит
Тип развёртки                            : Прогрессивная
Метод сжатия                             : С потерями
Бит/(Пиксели*Кадры)                      : 0.090
Размер потока                            : 26,1 Мбайт (86%)
Библиотека кодирования                   : XviD 1.2.1 (UTC 2008-12-04)
Аудио
Идентификатор                            : 1
Формат                                   : MPEG Audio
Версия формата                           : Version 1
Профиль формата                          : Layer 3
Идентификатор кодека                     : 55
Идентификатор кодека/Подсказка           : MP3
Продолжительность                        : 5 м. 36 с.
Продолжительность оригинала              : 5 м. 36 с.
Вид битрейта                             : Постоянный
Битрейт                                  : 96,0 Кбит/сек
Каналы                                   : 2 канала
Частота                                  : 44,1 КГц
Метод сжатия                             : С потерями
Размер потока                            : 3,85 Мбайт (13%)
Выравнивание                             : Соединение по промежуткам
Продолжительность промежутка             : 40  мс. (1,00 видеокадр)
Код: Выделить всё
Общее
Полное имя                               : E:\MONAR\Видео\Познавательные фильмы\Позиция с Игорем Стрелковым\30.11.15 Донбасс - в комплексном кризисе!.avi
Формат                                   : AVI
Формат/Информация                        : Audio Video Interleave
Размер файла                             : 28,4 Мбайт
Продолжительность                        : 5 м. 29 с.
Общий поток                              : 723 Кбит/сек
Видео
Идентификатор                            : 0
Формат                                   : MPEG-4 Visual
Профиль формата                          : Advanced Simple@L4
Параметр BVOP формата                    : 2
Параметр QPel формата                    : Нет
Параметр GMC формата                     : Без точки перехода
Параметр матрицы формата                 : Default (MPEG)
Идентификатор кодека                     : DIVX
Идентификатор кодека/Информация          : Project Mayo
Идентификатор кодека/Подсказка           : DivX 4
Продолжительность                        : 5 м. 29 с.
Битрейт                                  : 615 Кбит/сек
Ширина                                   : 720 пикселей
Высота                                   : 400 пикселей
Соотношение сторон                       : 16:9
Частота кадров                           : 25,000 кадров/сек
Цветовое пространство                    : YUV
Субдискретизация насыщенности            : 4:2:0
Битовая глубина                          : 8 бит
Тип развёртки                            : Прогрессивная
Метод сжатия                             : С потерями
Бит/(Пиксели*Кадры)                      : 0.085
Размер потока                            : 24,1 Мбайт (85%)
Библиотека кодирования                   : XviD 64
Аудио
Идентификатор                            : 1
Формат                                   : MPEG Audio
Версия формата                           : Version 1
Профиль формата                          : Layer 3
Идентификатор кодека                     : 55
Идентификатор кодека/Подсказка           : MP3
Продолжительность                        : 5 м. 28 с.
Продолжительность оригинала              : 5 м. 28 с.
Вид битрейта                             : Постоянный
Битрейт                                  : 96,0 Кбит/сек
Каналы                                   : 2 канала
Частота                                  : 44,1 КГц
Метод сжатия                             : С потерями
Размер потока                            : 3,76 Мбайт (13%)
Выравнивание                             : Разделение по промежуткам
Продолжительность промежутка             : 26  мс. (0,65 видеокадр)
Код: Выделить всё
Общее
Полное имя                               : E:\MONAR\Видео\Познавательные фильмы\Позиция с Игорем Стрелковым\16.12.15 К визиту госсека Керри.avi
Формат                                   : AVI
Формат/Информация                        : Audio Video Interleave
Размер файла                             : 218 Мбайт
Продолжительность                        : 13 м.
Общий поток                              : 2232 Кбит/сек
Видео
Идентификатор                            : 0
Формат                                   : MPEG-4 Visual
Профиль формата                          : Advanced Simple@L5
Параметр BVOP формата                    : 2
Параметр QPel формата                    : Нет
Параметр GMC формата                     : Без точки перехода
Параметр матрицы формата                 : Выборочная
Идентификатор кодека                     : XVID
Идентификатор кодека/Подсказка           : XviD
Продолжительность                        : 13 м.
Битрейт                                  : 2126 Кбит/сек
Ширина                                   : 720 пикселей
Высота                                   : 400 пикселей
Соотношение сторон                       : 16:9
Частота кадров                           : 25,000 кадров/сек
Цветовое пространство                    : YUV
Субдискретизация насыщенности            : 4:2:0
Битовая глубина                          : 8 бит
Тип развёртки                            : Прогрессивная
Метод сжатия                             : С потерями
Бит/(Пиксели*Кадры)                      : 0.295
Размер потока                            : 208 Мбайт (95%)
Библиотека кодирования                   : XviD 1.2.1 (UTC 2008-12-04)
Аудио
Идентификатор                            : 1
Формат                                   : MPEG Audio
Версия формата                           : Version 1
Профиль формата                          : Layer 3
Идентификатор кодека                     : 55
Идентификатор кодека/Подсказка           : MP3
Продолжительность                        : 13 м.
Продолжительность оригинала              : 13 м.
Вид битрейта                             : Постоянный
Битрейт                                  : 96,0 Кбит/сек
Каналы                                   : 2 канала
Частота                                  : 44,1 КГц
Метод сжатия                             : С потерями
Размер потока                            : 9,37 Мбайт (4%)
Выравнивание                             : Соединение по промежуткам
Продолжительность промежутка             : 40  мс. (1,00 видеокадр)
Код: Выделить всё
Общее
Полное имя                               : E:\MONAR\Видео\Познавательные фильмы\Позиция с Игорем Стрелковым\22.12.15 О госпитале и пятой колонне.avi
Формат                                   : AVI
Формат/Информация                        : Audio Video Interleave
Размер файла                             : 366 Мбайт
Продолжительность                        : 22 м.
Общий поток                              : 2275 Кбит/сек
Видео
Идентификатор                            : 0
Формат                                   : MPEG-4 Visual
Профиль формата                          : Advanced Simple@L5
Параметр BVOP формата                    : 2
Параметр QPel формата                    : Нет
Параметр GMC формата                     : Без точки перехода
Параметр матрицы формата                 : Выборочная
Идентификатор кодека                     : XVID
Идентификатор кодека/Подсказка           : XviD
Продолжительность                        : 22 м.
Битрейт                                  : 2170 Кбит/сек
Ширина                                   : 720 пикселей
Высота                                   : 400 пикселей
Соотношение сторон                       : 16:9
Частота кадров                           : 25,000 кадров/сек
Цветовое пространство                    : YUV
Субдискретизация насыщенности            : 4:2:0
Битовая глубина                          : 8 бит
Тип развёртки                            : Прогрессивная
Метод сжатия                             : С потерями
Бит/(Пиксели*Кадры)                      : 0.301
Размер потока                            : 349 Мбайт (95%)
Библиотека кодирования                   : XviD 1.2.1 (UTC 2008-12-04)
Аудио
Идентификатор                            : 1
Формат                                   : MPEG Audio
Версия формата                           : Version 1
Профиль формата                          : Layer 3
Идентификатор кодека                     : 55
Идентификатор кодека/Подсказка           : MP3
Продолжительность                        : 22 м.
Продолжительность оригинала              : 22 м.
Вид битрейта                             : Постоянный
Битрейт                                  : 96,0 Кбит/сек
Каналы                                   : 2 канала
Частота                                  : 44,1 КГц
Метод сжатия                             : С потерями
Размер потока                            : 15,4 Мбайт (4%)
Выравнивание                             : Соединение по промежуткам
Продолжительность промежутка             : 40  мс. (1,00 видеокадр)
Код: Выделить всё
Общее
Полное имя                               : E:\MONAR\Видео\Познавательные фильмы\Позиция с Игорем Стрелковым\06.01.16 Рождественское поздравление.avi
Формат                                   : AVI
Формат/Информация                        : Audio Video Interleave
Размер файла                             : 23,0 Мбайт
Продолжительность                        : 1 м. 43 с.
Общий поток                              : 1862 Кбит/сек
Видео
Идентификатор                            : 0
Формат                                   : MPEG-4 Visual
Профиль формата                          : Advanced Simple@L5
Параметр BVOP формата                    : 2
Параметр QPel формата                    : Нет
Параметр GMC формата                     : Без точки перехода
Параметр матрицы формата                 : Выборочная
Идентификатор кодека                     : XVID
Идентификатор кодека/Подсказка           : XviD
Продолжительность                        : 1 м. 43 с.
Битрейт                                  : 1756 Кбит/сек
Ширина                                   : 720 пикселей
Высота                                   : 400 пикселей
Соотношение сторон                       : 16:9
Частота кадров                           : 25,000 кадров/сек
Цветовое пространство                    : YUV
Субдискретизация насыщенности            : 4:2:0
Битовая глубина                          : 8 бит
Тип развёртки                            : Прогрессивная
Метод сжатия                             : С потерями
Бит/(Пиксели*Кадры)                      : 0.244
Размер потока                            : 21,7 Мбайт (94%)
Библиотека кодирования                   : XviD 1.2.1 (UTC 2008-12-04)
Аудио
Идентификатор                            : 1
Формат                                   : MPEG Audio
Версия формата                           : Version 1
Профиль формата                          : Layer 3
Идентификатор кодека                     : 55
Идентификатор кодека/Подсказка           : MP3
Продолжительность                        : 1 м. 43 с.
Продолжительность оригинала              : 1 м. 42 с.
Вид битрейта                             : Постоянный
Битрейт                                  : 96,0 Кбит/сек
Каналы                                   : 2 канала
Частота                                  : 44,1 КГц
Метод сжатия                             : С потерями
Размер потока                            : 1,18 Мбайт (5%)
Выравнивание                             : Соединение по промежуткам
Продолжительность промежутка             : 40  мс. (1,01 видеокадр)
Код: Выделить всё
Общее
Полное имя                               : E:\MONAR\Видео\Познавательные фильмы\Позиция с Игорем Стрелковым\15.01.16 Не ищите масонов в Кельне.avi
Формат                                   : AVI
Формат/Информация                        : Audio Video Interleave
Размер файла                             : 318 Мбайт
Продолжительность                        : 20 м.
Общий поток                              : 2218 Кбит/сек
Видео
Идентификатор                            : 0
Формат                                   : MPEG-4 Visual
Профиль формата                          : Advanced Simple@L5
Параметр BVOP формата                    : 2
Параметр QPel формата                    : Нет
Параметр GMC формата                     : Без точки перехода
Параметр матрицы формата                 : Выборочная
Идентификатор кодека                     : XVID
Идентификатор кодека/Подсказка           : XviD
Продолжительность                        : 20 м.
Битрейт                                  : 2110 Кбит/сек
Ширина                                   : 720 пикселей
Высота                                   : 400 пикселей
Соотношение сторон                       : 16:9
Частота кадров                           : 25,000 кадров/сек
Цветовое пространство                    : YUV
Субдискретизация насыщенности            : 4:2:0
Битовая глубина                          : 8 бит
Тип развёртки                            : Прогрессивная
Метод сжатия                             : С потерями
Бит/(Пиксели*Кадры)                      : 0.293
Размер потока                            : 303 Мбайт (95%)
Библиотека кодирования                   : XviD 1.2.1 (UTC 2008-12-04)
Аудио
Идентификатор                            : 1
Формат                                   : MPEG Audio
Версия формата                           : Version 1
Профиль формата                          : Layer 3
Идентификатор кодека                     : 55
Идентификатор кодека/Подсказка           : MP3
Продолжительность                        : 20 м.
Продолжительность оригинала              : 20 м.
Вид битрейта                             : Постоянный
Битрейт                                  : 96,0 Кбит/сек
Каналы                                   : 2 канала
Частота                                  : 44,1 КГц
Метод сжатия                             : С потерями
Размер потока                            : 13,8 Мбайт (4%)
Выравнивание                             : Разделение по промежуткам
Продолжительность промежутка             : 26  мс. (0,65 видеокадр)
Код: Выделить всё
Общее
Полное имя                               : E:\MONAR\Видео\Познавательные фильмы\Позиция с Игорем Стрелковым\24.01.16 О продлении Минских соглашений.avi
Формат                                   : AVI
Формат/Информация                        : Audio Video Interleave
Размер файла                             : 328 Мбайт
Продолжительность                        : 19 м.
Общий поток                              : 2341 Кбит/сек
Видео
Идентификатор                            : 0
Формат                                   : MPEG-4 Visual
Профиль формата                          : Advanced Simple@L5
Параметр BVOP формата                    : 2
Параметр QPel формата                    : Нет
Параметр GMC формата                     : Без точки перехода
Параметр матрицы формата                 : Выборочная
Идентификатор кодека                     : XVID
Идентификатор кодека/Подсказка           : XviD
Продолжительность                        : 19 м.
Битрейт                                  : 2236 Кбит/сек
Ширина                                   : 720 пикселей
Высота                                   : 400 пикселей
Соотношение сторон                       : 16:9
Частота кадров                           : 25,000 кадров/сек
Цветовое пространство                    : YUV
Субдискретизация насыщенности            : 4:2:0
Битовая глубина                          : 8 бит
Тип развёртки                            : Прогрессивная
Метод сжатия                             : С потерями
Бит/(Пиксели*Кадры)                      : 0.310
Размер потока                            : 314 Мбайт (95%)
Библиотека кодирования                   : XviD 1.2.1 (UTC 2008-12-04)
Аудио
Идентификатор                            : 1
Формат                                   : MPEG Audio
Версия формата                           : Version 1
Профиль формата                          : Layer 3
Идентификатор кодека                     : 55
Идентификатор кодека/Подсказка           : MP3
Продолжительность                        : 19 м.
Продолжительность оригинала              : 19 м.
Вид битрейта                             : Постоянный
Битрейт                                  : 96,0 Кбит/сек
Каналы                                   : 2 канала
Частота                                  : 44,1 КГц
Метод сжатия                             : С потерями
Размер потока                            : 13,5 Мбайт (4%)
Выравнивание                             : Соединение по промежуткам
Продолжительность промежутка             : 40  мс. (1,00 видеокадр)
Код: Выделить всё
Общее
Полное имя                               : E:\MONAR\Видео\Познавательные фильмы\Позиция с Игорем Стрелковым\27.01.16 Кердык Америки РФ не спасёт.avi
Формат                                   : AVI
Формат/Информация                        : Audio Video Interleave
Размер файла                             : 40,3 Мбайт
Продолжительность                        : 3 м. 20 с.
Общий поток                              : 1686 Кбит/сек
Видео
Идентификатор                            : 0
Формат                                   : MPEG-4 Visual
Профиль формата                          : Advanced Simple@L5
Параметр BVOP формата                    : 2
Параметр QPel формата                    : Нет
Параметр GMC формата                     : Без точки перехода
Параметр матрицы формата                 : Выборочная
Идентификатор кодека                     : XVID
Идентификатор кодека/Подсказка           : XviD
Продолжительность                        : 3 м. 20 с.
Битрейт                                  : 1580 Кбит/сек
Ширина                                   : 720 пикселей
Высота                                   : 400 пикселей
Соотношение сторон                       : 16:9
Частота кадров                           : 25,000 кадров/сек
Цветовое пространство                    : YUV
Субдискретизация насыщенности            : 4:2:0
Битовая глубина                          : 8 бит
Тип развёртки                            : Прогрессивная
Метод сжатия                             : С потерями
Бит/(Пиксели*Кадры)                      : 0.219
Размер потока                            : 37,7 Мбайт (94%)
Библиотека кодирования                   : XviD 1.2.1 (UTC 2008-12-04)
Аудио
Идентификатор                            : 1
Формат                                   : MPEG Audio
Версия формата                           : Version 1
Профиль формата                          : Layer 3
Идентификатор кодека                     : 55
Идентификатор кодека/Подсказка           : MP3
Продолжительность                        : 3 м. 19 с.
Продолжительность оригинала              : 3 м. 19 с.
Вид битрейта                             : Постоянный
Битрейт                                  : 96,0 Кбит/сек
Каналы                                   : 2 канала
Частота                                  : 44,1 КГц
Метод сжатия                             : С потерями
Размер потока                            : 2,28 Мбайт (6%)
Выравнивание                             : Соединение по промежуткам
Продолжительность промежутка             : 40  мс. (1,01 видеокадр)
Код: Выделить всё
Общее
Полное имя                               : E:\MONAR\Видео\Познавательные фильмы\Позиция с Игорем Стрелковым\30.01.16 ''Комитет 25 января'' - третья сила!.avi
Формат                                   : AVI
Формат/Информация                        : Audio Video Interleave
Размер файла                             : 839 Мбайт
Продолжительность                        : 47 м.
Общий поток                              : 2488 Кбит/сек
Видео
Идентификатор                            : 0
Формат                                   : MPEG-4 Visual
Профиль формата                          : Advanced Simple@L5
Параметр BVOP формата                    : 2
Параметр QPel формата                    : Нет
Параметр GMC формата                     : Без точки перехода
Параметр матрицы формата                 : Выборочная
Идентификатор кодека                     : XVID
Идентификатор кодека/Подсказка           : XviD
Продолжительность                        : 47 м.
Битрейт                                  : 2380 Кбит/сек
Ширина                                   : 720 пикселей
Высота                                   : 400 пикселей
Соотношение сторон                       : 16:9
Частота кадров                           : 25,000 кадров/сек
Цветовое пространство                    : YUV
Субдискретизация насыщенности            : 4:2:0
Битовая глубина                          : 8 бит
Тип развёртки                            : Прогрессивная
Метод сжатия                             : С потерями
Бит/(Пиксели*Кадры)                      : 0.331
Размер потока                            : 802 Мбайт (96%)
Библиотека кодирования                   : XviD 1.2.1 (UTC 2008-12-04)
Аудио
Идентификатор                            : 1
Формат                                   : MPEG Audio
Версия формата                           : Version 1
Профиль формата                          : Layer 3
Идентификатор кодека                     : 55
Идентификатор кодека/Подсказка           : MP3
Продолжительность                        : 47 м.
Продолжительность оригинала              : 47 м.
Вид битрейта                             : Постоянный
Битрейт                                  : 96,0 Кбит/сек
Каналы                                   : 2 канала
Частота                                  : 44,1 КГц
Метод сжатия                             : С потерями
Размер потока                            : 32,4 Мбайт (4%)
Выравнивание                             : Разделение по промежуткам
Продолжительность промежутка             : 26  мс. (0,65 видеокадр)
Код: Выделить всё
Общее
Полное имя                               : E:\MONAR\Видео\Познавательные фильмы\Позиция с Игорем Стрелковым\10.02.16 Игорь Стрелков и «Комитет 25 января» предупреждают.avi
Формат                                   : AVI
Формат/Информация                        : Audio Video Interleave
Размер файла                             : 158 Мбайт
Продолжительность                        : 9 м. 23 с.
Общий поток                              : 2357 Кбит/сек
Видео
Идентификатор                            : 0
Формат                                   : MPEG-4 Visual
Профиль формата                          : Advanced Simple@L5
Параметр BVOP формата                    : 2
Параметр QPel формата                    : Нет
Параметр GMC формата                     : Без точки перехода
Параметр матрицы формата                 : Выборочная
Идентификатор кодека                     : XVID
Идентификатор кодека/Подсказка           : XviD
Продолжительность                        : 9 м. 23 с.
Битрейт                                  : 2251 Кбит/сек
Ширина                                   : 720 пикселей
Высота                                   : 400 пикселей
Соотношение сторон                       : 16:9
Частота кадров                           : 25,000 кадров/сек
Цветовое пространство                    : YUV
Субдискретизация насыщенности            : 4:2:0
Битовая глубина                          : 8 бит
Тип развёртки                            : Прогрессивная
Метод сжатия                             : С потерями
Бит/(Пиксели*Кадры)                      : 0.313
Размер потока                            : 151 Мбайт (96%)
Библиотека кодирования                   : XviD 1.2.1 (UTC 2008-12-04)
Аудио
Идентификатор                            : 1
Формат                                   : MPEG Audio
Версия формата                           : Version 1
Профиль формата                          : Layer 3
Идентификатор кодека                     : 55
Идентификатор кодека/Подсказка           : MP3
Продолжительность                        : 9 м. 23 с.
Продолжительность оригинала              : 9 м. 23 с.
Вид битрейта                             : Постоянный
Битрейт                                  : 96,0 Кбит/сек
Каналы                                   : 2 канала
Частота                                  : 44,1 КГц
Метод сжатия                             : С потерями
Размер потока                            : 6,45 Мбайт (4%)
Выравнивание                             : Соединение по промежуткам
Продолжительность промежутка             : 40  мс. (1,00 видеокадр)
Код: Выделить всё
Общее
Полное имя                               : E:\MONAR\Видео\Познавательные фильмы\Позиция с Игорем Стрелковым\25.02.16 Комитет ''25 января'' - о первой акции 5 апреля.avi
Формат                                   : AVI
Формат/Информация                        : Audio Video Interleave
Размер файла                             : 30,5 Мбайт
Продолжительность                        : 2 м. 3 с.
Общий поток                              : 2078 Кбит/сек
Видео
Идентификатор                            : 0
Формат                                   : MPEG-4 Visual
Профиль формата                          : Advanced Simple@L5
Параметр BVOP формата                    : 2
Параметр QPel формата                    : Нет
Параметр GMC формата                     : Без точки перехода
Параметр матрицы формата                 : Выборочная
Идентификатор кодека                     : XVID
Идентификатор кодека/Подсказка           : XviD
Продолжительность                        : 2 м. 3 с.
Битрейт                                  : 1970 Кбит/сек
Ширина                                   : 720 пикселей
Высота                                   : 400 пикселей
Соотношение сторон                       : 16:9
Частота кадров                           : 25,000 кадров/сек
Цветовое пространство                    : YUV
Субдискретизация насыщенности            : 4:2:0
Битовая глубина                          : 8 бит
Тип развёртки                            : Прогрессивная
Метод сжатия                             : С потерями
Бит/(Пиксели*Кадры)                      : 0.274
Размер потока                            : 28,9 Мбайт (95%)
Библиотека кодирования                   : XviD 1.2.1 (UTC 2008-12-04)
Аудио
Идентификатор                            : 1
Формат                                   : MPEG Audio
Версия формата                           : Version 1
Профиль формата                          : Layer 3
Идентификатор кодека                     : 55
Идентификатор кодека/Подсказка           : MP3
Продолжительность                        : 2 м. 2 с.
Продолжительность оригинала              : 2 м. 2 с.
Вид битрейта                             : Постоянный
Битрейт                                  : 96,0 Кбит/сек
Каналы                                   : 2 канала
Частота                                  : 44,1 КГц
Метод сжатия                             : С потерями
Размер потока                            : 1,40 Мбайт (5%)
Выравнивание                             : Разделение по промежуткам
Продолжительность промежутка             : 26  мс. (0,66 видеокадр)
Код: Выделить всё
Общее
Полное имя                               : E:\MONAR\Видео\Познавательные фильмы\Позиция с Игорем Стрелковым\06.03.16 ''Комитет 2501'' - работа продолжается.avi
Формат                                   : AVI
Формат/Информация                        : Audio Video Interleave
Размер файла                             : 34,1 Мбайт
Продолжительность                        : 1 м. 59 с.
Общий поток                              : 2403 Кбит/сек
Видео
Идентификатор                            : 0
Формат                                   : MPEG-4 Visual
Профиль формата                          : Advanced Simple@L5
Параметр BVOP формата                    : 2
Параметр QPel формата                    : Нет
Параметр GMC формата                     : Без точки перехода
Параметр матрицы формата                 : Выборочная
Идентификатор кодека                     : XVID
Идентификатор кодека/Подсказка           : XviD
Продолжительность                        : 1 м. 59 с.
Битрейт                                  : 2297 Кбит/сек
Ширина                                   : 720 пикселей
Высота                                   : 400 пикселей
Соотношение сторон                       : 16:9
Частота кадров                           : 25,000 кадров/сек
Цветовое пространство                    : YUV
Субдискретизация насыщенности            : 4:2:0
Битовая глубина                          : 8 бит
Тип развёртки                            : Прогрессивная
Метод сжатия                             : С потерями
Бит/(Пиксели*Кадры)                      : 0.319
Размер потока                            : 32,6 Мбайт (96%)
Библиотека кодирования                   : XviD 1.2.1 (UTC 2008-12-04)
Аудио
Идентификатор                            : 1
Формат                                   : MPEG Audio
Версия формата                           : Version 1
Профиль формата                          : Layer 3
Идентификатор кодека                     : 55
Идентификатор кодека/Подсказка           : MP3
Продолжительность                        : 1 м. 58 с.
Продолжительность оригинала              : 1 м. 58 с.
Вид битрейта                             : Постоянный
Битрейт                                  : 96,0 Кбит/сек
Каналы                                   : 2 канала
Частота                                  : 44,1 КГц
Метод сжатия                             : С потерями
Размер потока                            : 1,35 Мбайт (4%)
Выравнивание                             : Соединение по промежуткам
Продолжительность промежутка             : 40  мс. (1,01 видеокадр)
Код: Выделить всё
Общее
Полное имя                               : E:\MONAR\Видео\Познавательные фильмы\Позиция с Игорем Стрелковым\07.03.16 Если идти - то до конца.avi
Формат                                   : AVI
Формат/Информация                        : Audio Video Interleave
Размер файла                             : 368 Мбайт
Продолжительность                        : 23 м.
Общий поток                              : 2220 Кбит/сек
Видео
Идентификатор                            : 0
Формат                                   : MPEG-4 Visual
Профиль формата                          : Advanced Simple@L5
Параметр BVOP формата                    : 2
Параметр QPel формата                    : Нет
Параметр GMC формата                     : Без точки перехода
Параметр матрицы формата                 : Выборочная
Идентификатор кодека                     : XVID
Идентификатор кодека/Подсказка           : XviD
Продолжительность                        : 23 м.
Битрейт                                  : 2114 Кбит/сек
Ширина                                   : 720 пикселей
Высота                                   : 400 пикселей
Соотношение сторон                       : 16:9
Частота кадров                           : 25,000 кадров/сек
Цветовое пространство                    : YUV
Субдискретизация насыщенности            : 4:2:0
Битовая глубина                          : 8 бит
Тип развёртки                            : Прогрессивная
Метод сжатия                             : С потерями
Бит/(Пиксели*Кадры)                      : 0.294
Размер потока                            : 351 Мбайт (95%)
Библиотека кодирования                   : XviD 1.2.1 (UTC 2008-12-04)
Аудио
Идентификатор                            : 1
Формат                                   : MPEG Audio
Версия формата                           : Version 1
Профиль формата                          : Layer 3
Идентификатор кодека                     : 55
Идентификатор кодека/Подсказка           : MP3
Продолжительность                        : 23 м.
Продолжительность оригинала              : 23 м.
Вид битрейта                             : Постоянный
Битрейт                                  : 96,0 Кбит/сек
Каналы                                   : 2 канала
Частота                                  : 44,1 КГц
Метод сжатия                             : С потерями
Размер потока                            : 15,9 Мбайт (4%)
Выравнивание                             : Соединение по промежуткам
Продолжительность промежутка             : 40  мс. (1,00 видеокадр)
Код: Выделить всё
Общее
Полное имя                               : E:\MONAR\Видео\Познавательные фильмы\Позиция с Игорем Стрелковым\18.03.16 О Сирии и Донбассе.avi
Формат                                   : AVI
Формат/Информация                        : Audio Video Interleave
Размер файла                             : 105 Мбайт
Продолжительность                        : 6 м. 20 с.
Общий поток                              : 2322 Кбит/сек
Видео
Идентификатор                            : 0
Формат                                   : MPEG-4 Visual
Профиль формата                          : Advanced Simple@L5
Параметр BVOP формата                    : 2
Параметр QPel формата                    : Нет
Параметр GMC формата                     : Без точки перехода
Параметр матрицы формата                 : Выборочная
Идентификатор кодека                     : XVID
Идентификатор кодека/Подсказка           : XviD
Продолжительность                        : 6 м. 20 с.
Битрейт                                  : 2216 Кбит/сек
Ширина                                   : 720 пикселей
Высота                                   : 400 пикселей
Соотношение сторон                       : 16:9
Частота кадров                           : 25,000 кадров/сек
Цветовое пространство                    : YUV
Субдискретизация насыщенности            : 4:2:0
Битовая глубина                          : 8 бит
Тип развёртки                            : Прогрессивная
Метод сжатия                             : С потерями
Бит/(Пиксели*Кадры)                      : 0.308
Размер потока                            : 101 Мбайт (95%)
Библиотека кодирования                   : XviD 1.2.1 (UTC 2008-12-04)
Аудио
Идентификатор                            : 1
Формат                                   : MPEG Audio
Версия формата                           : Version 1
Профиль формата                          : Layer 3
Идентификатор кодека                     : 55
Идентификатор кодека/Подсказка           : MP3
Продолжительность                        : 6 м. 20 с.
Продолжительность оригинала              : 6 м. 20 с.
Вид битрейта                             : Постоянный
Битрейт                                  : 96,0 Кбит/сек
Каналы                                   : 2 канала
Частота                                  : 44,1 КГц
Метод сжатия                             : С потерями
Размер потока                            : 4,35 Мбайт (4%)
Выравнивание                             : Соединение по промежуткам
Продолжительность промежутка             : 40  мс. (1,00 видеокадр)
Код: Выделить всё
Общее
Полное имя                               : E:\MONAR\Видео\Познавательные фильмы\Позиция с Игорем Стрелковым\24.03.16 Доклад на МЭФ.avi
Формат                                   : AVI
Формат/Информация                        : Audio Video Interleave
Размер файла                             : 85,1 Мбайт
Продолжительность                        : 6 м. 25 с.
Общий поток                              : 1852 Кбит/сек
Видео
Идентификатор                            : 0
Формат                                   : MPEG-4 Visual
Профиль формата                          : Advanced Simple@L5
Параметр BVOP формата                    : 2
Параметр QPel формата                    : Нет
Параметр GMC формата                     : Без точки перехода
Параметр матрицы формата                 : Выборочная
Идентификатор кодека                     : XVID
Идентификатор кодека/Подсказка           : XviD
Продолжительность                        : 6 м. 25 с.
Битрейт                                  : 1746 Кбит/сек
Ширина                                   : 720 пикселей
Высота                                   : 400 пикселей
Соотношение сторон                       : 16:9
Частота кадров                           : 25,000 кадров/сек
Цветовое пространство                    : YUV
Субдискретизация насыщенности            : 4:2:0
Битовая глубина                          : 8 бит
Тип развёртки                            : Прогрессивная
Метод сжатия                             : С потерями
Бит/(Пиксели*Кадры)                      : 0.242
Размер потока                            : 80,2 Мбайт (94%)
Библиотека кодирования                   : XviD 1.2.1 (UTC 2008-12-04)
Аудио
Идентификатор                            : 1
Формат                                   : MPEG Audio
Версия формата                           : Version 1
Профиль формата                          : Layer 3
Идентификатор кодека                     : 55
Идентификатор кодека/Подсказка           : MP3
Продолжительность                        : 6 м. 25 с.
Продолжительность оригинала              : 6 м. 25 с.
Вид битрейта                             : Постоянный
Битрейт                                  : 96,0 Кбит/сек
Каналы                                   : 2 канала
Частота                                  : 44,1 КГц
Метод сжатия                             : С потерями
Размер потока                            : 4,41 Мбайт (5%)
Выравнивание                             : Соединение по промежуткам
Продолжительность промежутка             : 40  мс. (1,00 видеокадр)
Код: Выделить всё
Общее
Полное имя                               : E:\MONAR\Видео\Познавательные фильмы\Позиция с Игорем Стрелковым\10.04.16 О чём говорит создание Нацгвардии.avi
Формат                                   : AVI
Формат/Информация                        : Audio Video Interleave
Размер файла                             : 465 Мбайт
Продолжительность                        : 32 м.
Общий поток                              : 1987 Кбит/сек
Видео
Идентификатор                            : 0
Формат                                   : MPEG-4 Visual
Профиль формата                          : Advanced Simple@L5
Параметр BVOP формата                    : 2
Параметр QPel формата                    : Нет
Параметр GMC формата                     : Без точки перехода
Параметр матрицы формата                 : Выборочная
Идентификатор кодека                     : XVID
Идентификатор кодека/Подсказка           : XviD
Продолжительность                        : 32 м.
Битрейт                                  : 1879 Кбит/сек
Ширина                                   : 720 пикселей
Высота                                   : 400 пикселей
Соотношение сторон                       : 16:9
Частота кадров                           : 25,000 кадров/сек
Цветовое пространство                    : YUV
Субдискретизация насыщенности            : 4:2:0
Битовая глубина                          : 8 бит
Тип развёртки                            : Прогрессивная
Метод сжатия                             : С потерями
Бит/(Пиксели*Кадры)                      : 0.261
Размер потока                            : 439 Мбайт (95%)
Библиотека кодирования                   : XviD 1.2.1 (UTC 2008-12-04)
Аудио
Идентификатор                            : 1
Формат                                   : MPEG Audio
Версия формата                           : Version 1
Профиль формата                          : Layer 3
Идентификатор кодека                     : 55
Идентификатор кодека/Подсказка           : MP3
Продолжительность                        : 32 м.
Продолжительность оригинала              : 32 м.
Вид битрейта                             : Постоянный
Битрейт                                  : 96,0 Кбит/сек
Каналы                                   : 2 канала
Частота                                  : 44,1 КГц
Метод сжатия                             : С потерями
Размер потока                            : 22,4 Мбайт (5%)
Выравнивание                             : Разделение по промежуткам
Продолжительность промежутка             : 26  мс. (0,65 видеокадр)
Код: Выделить всё
Общее
Полное имя                               : E:\MONAR\Видео\Познавательные фильмы\Позиция с Игорем Стрелковым\19.04.16 Против выдающейся подлости.avi
Формат                                   : AVI
Формат/Информация                        : Audio Video Interleave
Размер файла                             : 57,4 Мбайт
Продолжительность                        : 3 м. 54 с.
Общий поток                              : 2050 Кбит/сек
Видео
Идентификатор                            : 0
Формат                                   : MPEG-4 Visual
Профиль формата                          : Advanced Simple@L5
Параметр BVOP формата                    : 2
Параметр QPel формата                    : Нет
Параметр GMC формата                     : Без точки перехода
Параметр матрицы формата                 : Выборочная
Идентификатор кодека                     : XVID
Идентификатор кодека/Подсказка           : XviD
Продолжительность                        : 3 м. 54 с.
Битрейт                                  : 1945 Кбит/сек
Ширина                                   : 720 пикселей
Высота                                   : 400 пикселей
Соотношение сторон                       : 16:9
Частота кадров                           : 25,000 кадров/сек
Цветовое пространство                    : YUV
Субдискретизация насыщенности            : 4:2:0
Битовая глубина                          : 8 бит
Тип развёртки                            : Прогрессивная
Метод сжатия                             : С потерями
Бит/(Пиксели*Кадры)                      : 0.270
Размер потока                            : 54,4 Мбайт (95%)
Библиотека кодирования                   : XviD 1.2.1 (UTC 2008-12-04)
Аудио
Идентификатор                            : 1
Формат                                   : MPEG Audio
Версия формата                           : Version 1
Профиль формата                          : Layer 3
Идентификатор кодека                     : 55
Идентификатор кодека/Подсказка           : MP3
Продолжительность                        : 3 м. 53 с.
Продолжительность оригинала              : 3 м. 53 с.
Вид битрейта                             : Постоянный
Битрейт                                  : 96,0 Кбит/сек
Каналы                                   : 2 канала
Частота                                  : 44,1 КГц
Метод сжатия                             : С потерями
Размер потока                            : 2,67 Мбайт (5%)
Выравнивание                             : Соединение по промежуткам
Продолжительность промежутка             : 40  мс. (1,00 видеокадр)
Код: Выделить всё
Общее
Полное имя                               : E:\MONAR\Видео\Познавательные фильмы\Позиция с Игорем Стрелковым\21.04.16 История - самая политическая наука.avi
Формат                                   : AVI
Формат/Информация                        : Audio Video Interleave
Размер файла                             : 53,1 Мбайт
Продолжительность                        : 7 м. 9 с.
Общий поток                              : 1038 Кбит/сек
Видео
Идентификатор                            : 0
Формат                                   : MPEG-4 Visual
Профиль формата                          : Advanced Simple@L5
Параметр BVOP формата                    : 2
Параметр QPel формата                    : Нет
Параметр GMC формата                     : Без точки перехода
Параметр матрицы формата                 : Выборочная
Идентификатор кодека                     : XVID
Идентификатор кодека/Подсказка           : XviD
Продолжительность                        : 5 м. 27 с.
Битрейт                                  : 1225 Кбит/сек
Ширина                                   : 720 пикселей
Высота                                   : 400 пикселей
Соотношение сторон                       : 16:9
Частота кадров                           : 25,000 кадров/сек
Цветовое пространство                    : YUV
Субдискретизация насыщенности            : 4:2:0
Битовая глубина                          : 8 бит
Тип развёртки                            : Прогрессивная
Метод сжатия                             : С потерями
Бит/(Пиксели*Кадры)                      : 0.170
Размер потока                            : 47,8 Мбайт (90%)
Библиотека кодирования                   : XviD 1.2.1 (UTC 2008-12-04)
Аудио
Идентификатор                            : 1
Формат                                   : MPEG Audio
Версия формата                           : Version 1
Профиль формата                          : Layer 3
Идентификатор кодека                     : 55
Идентификатор кодека/Подсказка           : MP3
Продолжительность                        : 7 м. 9 с.
Продолжительность оригинала              : 7 м. 9 с.
Вид битрейта                             : Постоянный
Битрейт                                  : 96,0 Кбит/сек
Каналы                                   : 2 канала
Частота                                  : 44,1 КГц
Метод сжатия                             : С потерями
Размер потока                            : 4,91 Мбайт (9%)
Выравнивание                             : Соединение по промежуткам
Продолжительность промежутка             : 40  мс. (1,00 видеокадр)
Код: Выделить всё
Общее
Полное имя                               : E:\MONAR\Видео\Познавательные фильмы\Позиция с Игорем Стрелковым\03.05.16 Помни Одессу!.avi
Формат                                   : AVI
Формат/Информация                        : Audio Video Interleave
Размер файла                             : 76,5 Мбайт
Продолжительность                        : 4 м. 46 с.
Общий поток                              : 2235 Кбит/сек
Видео
Идентификатор                            : 0
Формат                                   : MPEG-4 Visual
Профиль формата                          : Advanced Simple@L5
Параметр BVOP формата                    : 2
Параметр QPel формата                    : Нет
Параметр GMC формата                     : Без точки перехода
Параметр матрицы формата                 : Выборочная
Идентификатор кодека                     : XVID
Идентификатор кодека/Подсказка           : XviD
Продолжительность                        : 4 м. 46 с.
Битрейт                                  : 2130 Кбит/сек
Ширина                                   : 720 пикселей
Высота                                   : 400 пикселей
Соотношение сторон                       : 16:9
Частота кадров                           : 25,000 кадров/сек
Цветовое пространство                    : YUV
Субдискретизация насыщенности            : 4:2:0
Битовая глубина                          : 8 бит
Тип развёртки                            : Прогрессивная
Метод сжатия                             : С потерями
Бит/(Пиксели*Кадры)                      : 0.296
Размер потока                            : 72,8 Мбайт (95%)
Библиотека кодирования                   : XviD 1.2.1 (UTC 2008-12-04)
Аудио
Идентификатор                            : 1
Формат                                   : MPEG Audio
Версия формата                           : Version 1
Профиль формата                          : Layer 3
Идентификатор кодека                     : 55
Идентификатор кодека/Подсказка           : MP3
Продолжительность                        : 4 м. 46 с.
Продолжительность оригинала              : 4 м. 46 с.
Вид битрейта                             : Постоянный
Битрейт                                  : 96,0 Кбит/сек
Каналы                                   : 2 канала
Частота                                  : 44,1 КГц
Метод сжатия                             : С потерями
Размер потока                            : 3,27 Мбайт (4%)
Выравнивание                             : Соединение по промежуткам
Продолжительность промежутка             : 40  мс. (1,00 видеокадр)
Код: Выделить всё
Общее
Полное имя                               : E:\MONAR\Видео\Познавательные фильмы\Позиция с Игорем Стрелковым\23.05.16 О Нуланд, Сурко-Бородае и укробезумии.avi
Формат                                   : AVI
Формат/Информация                        : Audio Video Interleave
Размер файла                             : 175 Мбайт
Продолжительность                        : 11 м.
Общий поток                              : 2162 Кбит/сек
Видео
Идентификатор                            : 0
Формат                                   : MPEG-4 Visual
Профиль формата                          : Advanced Simple@L5
Параметр BVOP формата                    : 2
Параметр QPel формата                    : Нет
Параметр GMC формата                     : Без точки перехода
Параметр матрицы формата                 : Выборочная
Идентификатор кодека                     : XVID
Идентификатор кодека/Подсказка           : XviD
Продолжительность                        : 11 м.
Битрейт                                  : 2057 Кбит/сек
Ширина                                   : 720 пикселей
Высота                                   : 400 пикселей
Соотношение сторон                       : 16:9
Частота кадров                           : 25,000 кадров/сек
Цветовое пространство                    : YUV
Субдискретизация насыщенности            : 4:2:0
Битовая глубина                          : 8 бит
Тип развёртки                            : Прогрессивная
Метод сжатия                             : С потерями
Бит/(Пиксели*Кадры)                      : 0.286
Размер потока                            : 166 Мбайт (95%)
Библиотека кодирования                   : XviD 1.2.1 (UTC 2008-12-04)
Аудио
Идентификатор                            : 1
Формат                                   : MPEG Audio
Версия формата                           : Version 1
Профиль формата                          : Layer 3
Идентификатор кодека                     : 55
Идентификатор кодека/Подсказка           : MP3
Продолжительность                        : 11 м.
Продолжительность оригинала              : 11 м.
Вид битрейта                             : Постоянный
Битрейт                                  : 96,0 Кбит/сек
Каналы                                   : 2 канала
Частота                                  : 44,1 КГц
Метод сжатия                             : С потерями
Размер потока                            : 7,75 Мбайт (4%)
Выравнивание                             : Соединение по промежуткам
Продолжительность промежутка             : 40  мс. (1,00 видеокадр)
21.08.15 Торрент-файл перезалит. Добавлен выпуск "Донбасс и РФ накануне новой войны".
04.09.15 Торрент-файл перезалит. Добавлен выпуск "РФ в Донбассе - игра с разменом фигур".
01.10.15 Торрент-файл перезалит. Добавлен выпуск "Сирия уже за красной чертой".
22.10.15 Торрент-файл перезалит. Добавлен выпуск "Странная война".
06.11.15 Торрент-файл перезалит. Добавлен выпуск "Кто и как загнал РФ в Сирию?".
26.11.15 Торрент-файл перезалит. Добавлены выпуски "Терроровойна в РФ" и "Бунт дальнобойщиков - что делать".
29.11.15 Торрент-файл перезалит. Добавлен выпуск "От Майдана до заката".
30.11.15 Торрент-файл перезалит. Добавлен выпуск "Донбасс - в комплексном кризисе!".
17.12.15 Торрент-файл перезалит. Добавлен выпуск "К визиту госсека Керри".
23.12.15 Торрент-файл перезалит. Добавлен выпуск "О госпитале и пятой колонне".
16.01.16 Торрент-файл перезалит. Добавлены выпуски "Рождественское поздравление" и "Не ищите масонов в Кельне".
24.01.16 Торрент-файл перезалит. Добавлен выпуск "О продлении Минских соглашений".
31.01.16 Торрент-файл перезалит. Добавлены выпуски "Кердык Америки РФ не спасёт" и "''Комитет 25 января'': третья сила!".
11.02.16 Торрент-файл перезалит. Добавлен выпуск "Игорь Стрелков и «Комитет 25 января» предупреждают".
08.03.16 Торрент-файл перезалит. Добавлены выпуски "Комитет ''25 января'' - о первой акции 5 апреля", ''"Комитет 2501'' - работа продолжается", "Если идти - то до конца".
19.03.16 Торрент-файл перезалит. Добавлен выпуск "О Сирии и Донбассе".
25.03.16 Торрент-файл перезалит. Добавлен выпуск "Доклад на МЭФ".
10.04.16 Торрент-файл перезалит. Добавлен выпуск "О чём говорит создание Нацгвардии".
21.04.16 Торрент-файл перезалит. Добавлен выпуск "Против выдающейся подлости".
05.05.16 Торрент-файл перезалит. Добавлены выпуски "История - самая политическая наука" и "Помни Одессу!".
25.05.16 Торрент-файл перезалит. Добавлен выпуск "О Нуланд, Сурко-Бородае и укробезумии".
30.05.16 Торрент-файл перезалит. Добавлен выпуск "От «Комитета 25 января» – к Движению Игоря Стрелкова".
18.06.16 Торрент-файл перезалит. Добавлены выпуски "Кого забыли обменять на Савченко" и "О спущенном триколоре в Киеве".
30.07.16 Торрент-файл перезалит. Добавлен выпуск "О забавах выпускников академии ФСБ".
16.07.16 Торрент-файл перезалит. Добавлен выпуск "Кризис, силовики и Путин".
21.07.16 Торрент-файл перезалит. Добавлены выпуски "СССР - виновник волынской резни, считают поляки" и "Позор бездействия".
12.08.16 Торрент-файл перезалит. Добавлен выпуск "Грянет ли гражданская война в США".
25.08.16 Торрент-файл перезалит. Добавлен выпуск "Кровавое воскресенье лайт".
23.09.16 Торрент-файл перезалит. Добавлен выпуск "О фарсе ''выборов'' и Обаме".
01.10.16 Торрент-файл перезалит. Добавлен выпуск "Курилы и «дипломатия бессилия»".
17.10.16 Торрент-файл перезалит. Добавлен выпуск "Кто убил Моторолу".
23.10.16 Торрент-файл перезалит. Добавлен выпуск "Порошенко торгует ''бички'' мадам Меркель".
26.10.16 Торрент-файл перезалит. Добавлен выпуск "Принуждение к перевороту".
17.11.16 Торрент-файл перезалит. Добавлены выпуски "Поддержи русских узников!" и "Всё от Трампе".
01.12.16 Торрент-файл перезалит. Добавлен выпуск "Почему скончались и ''революция достоинства'', и Русская весна".
01.01.17 Торрент-файл перезалит. Добавлены выпуски "Прерванный эфир по Южным Курилам" и "Новогоднее поздравление".
05.02.17 Торрент-файл перезалит. Добавлен выпуск "Италия и РФ – мистическая связь".
18.02.17 Торрент-файл перезалит. Добавлены выпуски "Момент истины на Донбассе" и "Донбасс – не Крым, говорите".
 
Не забывайте говорить Спасибо. Не уходите с раздачи!   
Торрент: Зарегистрирован [28 дек 2017, 22:01] Для скачивания .torrent
необходима регистрация
Или скачать с помощью
MediaGet
Статус:
Проверен
 
.torrent скачан: 0 раз
Хэш: 6dc69b55f8ebbae6b403a55510ce62a11584ffb5
Размер: 22.39 ГБ (24 043 240 310 байт)
Стать Автором раздачи
 
 
Раздал: 0 байт
Скачал: 0 байт
Ратио: Inf.
Сообщения: 487468
Зарегистрирован: 17 апр 2014, 13:57


  • Похожие торренты
    Ответы
    Просмотры
    Последнее сообщение

Вернуться в Разное / некондиция (документалистика и передачи)

Ресурс не предоставляет электронные версии произведений, а занимается лишь коллекционированием и каталогизацией ссылок, присылаемых и публикуемых на форуме нашими читателями. Если вы являетесь правообладателем какого-либо представленного материала и не желаете чтобы ссылка на него находилась в нашем каталоге, свяжитесь с нами и мы незамедлительно удалим её. Файлы для обмена на трекере предоставлены пользователями сайта, и администрация не несёт ответственности за их содержание. Просьба не заливать файлы, защищенные авторскими правами, а также файлы нелегального содержания!
cron