Мир Юрского Периода 2 / Jurassiс World: Fallen Kingdom (Х. А. Байона) [2018, фантастика, боевик, приключения, DCPRip 2К, PCM/DTS/AC-3 Audio] Tрейлер #1

 
 Статистика раздачи 
Размер: 731.44 МБ   |  Зарегистрирован: 25 дек 2017, 23:13   |   .torrent скачан: 0 раз
Сидеров: 1  [ 0 байт/сек ]     Личеров: 0  [ 0 байт/сек ]  
  

Мир Юрского Периода 2 / Jurassiс World: Fallen Kingdom (Х. А. Байона) [2018, фантастика, боевик, приключения, DCPRip 2К, PCM/DTS/AC-3 Audio] Tрейлер #1

Сообщение Nakazhu » 25 дек 2017, 23:13


Jurassiс World: Fallen Kingdom / Мир Юрского Периода 2
Тип раздаваемого материала: трейлер
Год выпуска фильма: 2018
Страна: США
Жанр: фантастика, боевик, приключения
Продолжительность: 00:02:29
Перевод: Полное дублирование
Русские субтитры: нет
Режиссер: Х. А. Байона
Сценарий: Персонажи: Майкл Крайтон Сценарий: Колин Треворроу, Дерек Коннолли
В ролях: Крис Прэтт, Брайс Даллас Ховард, Б. Д. Вонг, Тоби Джонс, Рэйф Сполл, Джастис Смит, Даниэлла Пинеда, Тед Левин, Джеральдин Чаплин, Джеймс Кромвелл
Описание: Прошло четыре года после событий предыдущей картины. Динозавры свободно бродят по острову Нублар и разрушенным остаткам парка развлечений. Древний вулкан лежащий под островом неожиданно пробуждается и угрожает всему живому на острове. Клэр, бывший менеджер парка развлечений, организует кампанию по спасению части динозавров. Она находит инвесторов и привлекает к ней отошедшего от дел дрессировщика динозавров Оуэна. Возникшие между ними в прошлом романтические отношения ныне прерваны. Оуэна не особенно тянет на Нублар, но он вспоминает о своей самой разумной воспитаннице, рапторе Блю.
По прибытию сейсмическая обстановка на острове оказывается крайне нестабильной. Героям предстоит спастись от вулканических бомб и потоков лавы. Выясняется что колоссальное извержение грозит существованию всей планеты
Дата выхода (США): 22 июня 2018, Universal Pictures
Премьера (РФ): 7 июня 2018, «UPI»
Качество: DCPRip
Формат видео: MKV
Видео кодек: H264
Аудио кодек: PCM/DTS/AC-3
Видео: AVC, 8bit, 4:2:0, High@L4.1, 2048x858 (2.40:1), 24,000 fps, 32.0 Mbps
Аудио: русский
1) PCM / 5.1 / 48 kHz / 6912 kb/s / 24 bit
2) DTS / 5.1 / 48 kHz / 1536 kb/s / 24 bit
3) AC-3 / 5.1 / 48 kHz / 640 kb/s
General
Unique ID : 201904587783761791688169015276823646905 (0x97E568BE32AEA092B829B7625ED012B9)
Complete name : H:\=ENTERTAINMENT=\=Trailers=\Jurassik World Fallen Kingdom [Мир Юрского Периода 2] 2048x858 [Trailer #1]\Jurassiс World Fallen Kingdom [Мир Юрского Периода 2] 2048x858 [Trailer #1].mkv
Format : Matroska
Format version : Version 4 / Version 2
File size : 731 MiB
Duration : 2mn 29s
Overall bit rate : 41.0 Mbps
Encoded date : UTC 2017-12-13 13:16:24
Writing application : mkvmerge v12.0.0 ('Trust / Lust') 64bit
Writing library : libebml v1.3.4 + libmatroska v1.4.5
Video
ID : 1
Format : AVC
Format/Info : Advanced Video Codec
Format profile : High@L4.1
Format settings, CABAC : Yes
Format settings, ReFrames : 4 frames
Codec ID : V_MPEG4/ISO/AVC
Duration : 2mn 29s
Bit rate : 32.0 Mbps
Width : 2 048 pixels
Height : 858 pixels
Display aspect ratio : 2.40:1
Frame rate mode : Constant
Frame rate : 24.000 fps
Color space : YUV
Chroma subsampling : 4:2:0
Bit depth : 8 bits
Scan type : Progressive
Bits/(Pixel*Frame) : 0.759
Stream size : 569 MiB (78%)
Writing library : x264 core 142 r2479 dd79a61
Encoding settings : cabac=1 / ref=1 / deblock=1:0:0 / analyse=0x3:0x113 / me=hex / subme=2 / psy=1 / psy_rd=1.00:0.00 / mixed_ref=0 / me_range=16 / chroma_me=1 / trellis=0 / 8x8dct=1 / cqm=0 / deadzone=21,11 / fast_pskip=1 / chroma_qp_offset=0 / threads=6 / lookahead_threads=2 / sliced_threads=0 / nr=0 / decimate=1 / interlaced=0 / bluray_compat=0 / constrained_intra=0 / bframes=3 / b_pyramid=2 / b_adapt=1 / b_bias=0 / direct=1 / weightb=1 / open_gop=0 / weightp=1 / keyint=240 / keyint_min=24 / scenecut=40 / intra_refresh=0 / rc_lookahead=10 / rc=2pass / mbtree=1 / bitrate=32000 / ratetol=1.0 / qcomp=0.60 / qpmin=0 / qpmax=69 / qpstep=4 / cplxblur=20.0 / qblur=0.5 / vbv_maxrate=62500 / vbv_bufsize=78125 / nal_hrd=none / filler=0 / ip_ratio=1.40 / aq=1:1.00
Default : Yes
Forced : No
Color range : Limited
Color primaries : BT.709
Transfer characteristics : BT.709
Matrix coefficients : BT.601
Audio #1
ID : 2
Format : PCM
Codec ID : A_PCM/INT/LIT
Duration : 2mn 29s
Bit rate mode : Constant
Bit rate : 6 912 Kbps
Channel(s) : 6 channels
Sampling rate : 48.0 KHz
Frame rate : 46.876 fps (1024 spf)
Bit depth : 24 bits
Delay relative to video : -83ms
Stream size : 123 MiB (17%)
Title : PCM 5.1
Language : English
Default : Yes
Forced : No
Audio #2
ID : 3
Format : DTS
Format/Info : Digital Theater Systems
Mode : 16
Format settings, Endianness : Big
Codec ID : A_DTS
Duration : 2mn 29s
Bit rate mode : Constant
Bit rate : 1 536 Kbps
Channel(s) : 6 channels
Channel positions : Front: L C R, Side: L R, LFE
Sampling rate : 48.0 KHz
Frame rate : 93.750 fps (512 spf)
Bit depth : 24 bits
Compression mode : Lossy
Delay relative to video : -83ms
Stream size : 27.4 MiB (4%)
Title : DTS 5.1
Language : English
Default : No
Forced : No
Audio #3
ID : 4
Format : AC-3
Format/Info : Audio Coding 3
Mode extension : CM (complete main)
Format settings, Endianness : Big
Codec ID : A_AC3
Duration : 2mn 29s
Bit rate mode : Constant
Bit rate : 640 Kbps
Channel(s) : 6 channels
Channel positions : Front: L C R, Side: L R, LFE
Sampling rate : 48.0 KHz
Frame rate : 31.250 fps (1536 spf)
Compression mode : Lossy
Delay relative to video : -83ms
Stream size : 11.4 MiB (2%)
Title : AC3 5.1
Language : English
Default : No
Forced : No
 
Не забывайте говорить Спасибо. Не уходите с раздачи!   
Торрент: Зарегистрирован [25 дек 2017, 23:13] Скачать торрент
Скачать торрент
[ Размер 14.8 КБ / Просмотров 31 ]
Статус:
Проверен
 
.torrent скачан: 0 раз
Хэш: a7cb19e2f99c464027fce6f598dbf10d1db5fa48
Размер: 731.44 МБ (766 966 437 байт)
Стать Автором раздачи
 
 
Раздал: 0 байт
Скачал: 0 байт
Ратио: Inf.
Сообщения: 487468
Зарегистрирован: 17 апр 2014, 13:57


  • Похожие торренты
    Ответы
    Просмотры
    Последнее сообщение

Вернуться в Трейлеры и дополнительные материалы к фильмам

Ресурс не предоставляет электронные версии произведений, а занимается лишь коллекционированием и каталогизацией ссылок, присылаемых и публикуемых на форуме нашими читателями. Если вы являетесь правообладателем какого-либо представленного материала и не желаете чтобы ссылка на него находилась в нашем каталоге, свяжитесь с нами и мы незамедлительно удалим её. Файлы для обмена на трекере предоставлены пользователями сайта, и администрация не несёт ответственности за их содержание. Просьба не заливать файлы, защищенные авторскими правами, а также файлы нелегального содержания!
cron