Чего хочет Джульетта / L'embarras du choix (Эрик Лавэн / Eric Lavaine) [2017, Франция, мелодрама, комедия, WEB-DLRip-AVC] MVO

 
 Статистика раздачи 
Размер: 1.46 ГБ   |  Зарегистрирован: 25 дек 2017, 16:16   |   .torrent скачан: 0 раз
Сидеров: 1  [ 0 байт/сек ]     Личеров: 0  [ 0 байт/сек ]  
  

Чего хочет Джульетта / L'embarras du choix (Эрик Лавэн / Eric Lavaine) [2017, Франция, мелодрама, комедия, WEB-DLRip-AVC] MVO

Сообщение Nakazhu » 25 дек 2017, 16:16


Чего хочет Джульетта / L'embarras du choix

«Бриджит Джонс по-французски»


Страна: Франция
Жанр: мелодрама, комедия
Год выпуска: 2017
Продолжительность: 01:34:06
Перевод: Профессиональный (многоголосый закадровый) iTunes
Субтитры: нет
Оригинальная аудиодорожка: нет
Режиссер: Эрик Лавэн / Eric Lavaine
В ролях: Александра Лами, Арно Дюкре, Джейми Бамбер, Энн Маривин, Сабрина Уазани, Лионель Астье, Жером Коммандёр, Арно Анриет, Франк Дюбоск, Франк Гастамбид
Описание: Джульетта все время сталкивается с одной и той же проблемой: ей трудно определиться с выбором. Без участия отца и друзей она не в состоянии решить ни какое платье надеть, ни что заказать в ресторане, ни как провести вечер. Но когда на ее пути одновременно появляются Пол и Этьен, то она впервые решает сделать самостоятельный выбор.


Качество видео: WEB-DLRip-AVC / JULIETA_WEB_DL_1080p-BLUEBIRD
Формат видео: MKV
Видео: MPEG-4 AVC, 1104x492 (2.25:1), 24.000 fps, ~1830 kbps avg, 0.140 bit/pixel
Аудио: 48 kHz, AC3 Dolby Digital, 3/2 (L,C,R,l,r) + LFE ch, ~384 kbps avg
Код: Выделить всё
Код:
Код: Выделить всё
Complete name               : D:\Раздачи\Чего хочет Джульетта (2017) WEB-DLRip-AVC_ivanes20031987.mkv
Format                      : Matroska
Format version              : Version 2
File size                   : 1.46 GiB
Duration                    : 1 h 34 min
Overall bit rate            : 2 215 kb/s
Encoded date                : UTC 2017-12-25 12:51:32
Writing application         : mkvmerge v4.4.0 ('Die Wiederkehr') сборка от Jan  3 2011 21:40:45
Writing library             : libebml v1.0.0 + libmatroska v1.0.0
Cover                       : Yes
Attachments                 : cover.jpg
Video
ID                          : 1
Format                      : AVC
Format/Info                 : Advanced Video Codec
Format profile              : High@L4.1
Format settings, CABAC      : Yes
Format settings, RefFrames  : 14 frames
Codec ID                    : V_MPEG4/ISO/AVC
Duration                    : 1 h 34 min
Bit rate                    : 1 830 kb/s
Width                       : 1 104 pixels
Height                      : 492 pixels
Display aspect ratio        : 2.25:1
Frame rate mode             : Constant
Frame rate                  : 24.000 FPS
Color space                 : YUV
Chroma subsampling          : 4:2:0
Bit depth                   : 8 bits
Scan type                   : Progressive
Bits/(Pixel*Frame)          : 0.140
Stream size                 : 1.17 GiB (81%)
Writing library             : x264 core 152 r2851kMod ba24899
Encoding settings           : cabac=1 / ref=14 / deblock=1:-1:-1 / analyse=0x3:0x133 / me=umh / subme=10 / psy=1 / fade_compensate=0.00 / psy_rd=1.00:0.00 / mixed_ref=1 / me_range=32 / chroma_me=1 / trellis=2 / 8x8dct=1 / cqm=0 / deadzone=21,11 / fast_pskip=0 / chroma_qp_offset=-2 / threads=15 / lookahead_threads=3 / sliced_threads=0 / nr=0 / decimate=0 / interlaced=0 / bluray_compat=0 / constrained_intra=0 / bframes=14 / b_pyramid=2 / b_adapt=2 / b_bias=0 / direct=1 / weightb=1 / open_gop=0 / weightp=2 / keyint=240 / keyint_min=24 / scenecut=40 / intra_refresh=0 / rc_lookahead=90 / rc=2pass / mbtree=0 / bitrate=1830 / ratetol=1.0 / qcomp=0.60 / qpmin=0 / qpmax=69 / qpstep=4 / cplxblur=20.0 / qblur=0.5 / vbv_maxrate=50000 / vbv_bufsize=62500 / nal_hrd=none / filler=0 / ip_ratio=1.40 / pb_ratio=1.30 / aq=1:1.00
Default                     : Yes
Forced                      : No
Audio
ID                          : 2
Format                      : AC-3
Format/Info                 : Audio Coding 3
Format settings, Endianness : Big
Codec ID                    : A_AC3
Duration                    : 1 h 34 min
Bit rate mode               : Constant
Bit rate                    : 384 kb/s
Channel(s)                  : 6 channels
Channel positions           : Front: L C R, Side: L R, LFE
Sampling rate               : 48.0 kHz
Frame rate                  : 31.250 FPS (1536 SPF)
Bit depth                   : 16 bits
Compression mode            : Lossy
Stream size                 : 258 MiB (17%)
Title                       : iTunes
Language                    : Russian
Service kind                : Complete Main
Default                     : Yes
Forced                      : No

Код:
Код: Выделить всё
raw [info]: 1104x492p 1:1 @ 24/1 fps (cfr)
x264 [info]: using SAR=1/1
x264 [info]: using cpu capabilities: MMX2 SSE2Fast SSSE3 SSE4.2
x264 [info]: profile High, level 4.1
x264 [info]: cabac=1 ref=14 deblock=1:-1:-1 analyse=0x3:0x133 me=umh subme=10 psy=1 fade_compensate=0.00 psy_rd=1.00:0.00 mixed_ref=1 me_range=32 chroma_me=1 trellis=2 8x8dct=1 cqm=0 deadzone=21,11 fast_pskip=0 chroma_qp_offset=-2 threads=15 lookahead_threads=3 sliced_threads=0 nr=0 decimate=0 interlaced=0 bluray_compat=0 constrained_intra=0 bframes=14 b_pyramid=2 b_adapt=2 b_bias=0 direct=1 weightb=1 open_gop=0 weightp=2 keyint=240 keyint_min=24 scenecut=40 intra_refresh=0 rc_lookahead=90 rc=2pass mbtree=0 bitrate=1830 ratetol=1.0 qcomp=0.60 qpmin=0 qpmax=69 qpstep=4 cplxblur=20.0 qblur=0.5 vbv_maxrate=50000 vbv_bufsize=62500 nal_hrd=none filler=0 ip_ratio=1.40 pb_ratio=1.30 aq=1:1.00
frames     fps     kb/s    elapsed   remain     size    est.size
x264 [info]: frame I:1109  Avg QP:16.47  size: 70344
x264 [info]: frame P:35978 Avg QP:19.60  size: 19631
x264 [info]: frame B:98425 Avg QP:21.35  size:  5147
x264 [info]: consecutive B-frames:  2.0%  6.0%  4.5% 74.4%  4.1%  7.7%  0.4%  0.3%  0.1%  0.0%  0.0%  0.0%  0.1%  0.0%  0.3%
x264 [info]: mb I  I16..4:  4.9% 73.0% 22.1%
x264 [info]: mb P  I16..4:  0.7%  6.0%  1.2%  P16..4: 42.3% 22.5% 17.2%  0.7%  0.2%    skip: 9.2%
x264 [info]: mb B  I16..4:  0.1%  0.5%  0.1%  B16..8: 34.8%  9.8%  2.9%  direct: 4.0%  skip:47.9%  L0:36.7% L1:47.2% BI:16.1%
x264 [info]: 8x8 transform intra:75.2% inter:58.2%
x264 [info]: coded y,uvDC,uvAC intra: 88.0% 87.2% 63.6% inter: 18.9% 15.0% 7.4%
x264 [info]: i16 v,h,dc,p: 42% 12%  4% 42%
x264 [info]: i8 v,h,dc,ddl,ddr,vr,hd,vl,hu: 15% 11%  5%  8% 11% 13% 12% 12% 12%
x264 [info]: i4 v,h,dc,ddl,ddr,vr,hd,vl,hu: 16% 10%  3%  8% 13% 14% 13% 11% 12%
x264 [info]: i8c dc,h,v,p: 38% 22% 22% 18%
x264 [info]: Weighted P-Frames: Y:1.4% UV:0.4%
x264 [info]: ref P L0: 54.7% 11.9% 14.5%  4.4%  3.7%  2.6%  2.5%  1.1%  1.1%  0.8%  0.8%  0.6%  0.7%  0.6%  0.0%  0.0%
x264 [info]: ref B L0: 82.4%  8.2%  3.3%  1.6%  1.0%  1.2%  0.6%  0.4%  0.3%  0.3%  0.3%  0.2%  0.1%
x264 [info]: ref B L1: 96.6%  3.4%
x264 [info]: kb/s:1829.04

 
Не забывайте говорить Спасибо. Не уходите с раздачи!   
Торрент: Зарегистрирован [25 дек 2017, 16:16] Для скачивания .torrent
необходима регистрация
Или скачать с помощью
MediaGet
Статус:
Проверен
 
.torrent скачан: 0 раз
Хэш: e7087da61841cccc632dedf3910985c92d9c2961
Размер: 1.46 ГБ (1 563 270 663 байт)
Стать Автором раздачи
 
 
Раздал: 0 байт
Скачал: 0 байт
Ратио: Inf.
Сообщения: 439334
Зарегистрирован: 17 апр 2014, 13:57


  • Похожие торренты
    Ответы
    Просмотры
    Последнее сообщение

Вернуться в Зарубежное кино

Ресурс не предоставляет электронные версии произведений, а занимается лишь коллекционированием и каталогизацией ссылок, присылаемых и публикуемых на форуме нашими читателями. Если вы являетесь правообладателем какого-либо представленного материала и не желаете чтобы ссылка на него находилась в нашем каталоге, свяжитесь с нами и мы незамедлительно удалим её. Файлы для обмена на трекере предоставлены пользователями сайта, и администрация не несёт ответственности за их содержание. Просьба не заливать файлы, защищенные авторскими правами, а также файлы нелегального содержания!
cron