Чего хочет Джульетта / L'embarras du choix (Эрик Лавэн / Eric Lavaine) [2017, Франция, мелодрама, комедия, WEB-DLRip] MVO (iTunes)

 
 Статистика раздачи 
Размер: 1.46 ГБ   |  Зарегистрирован: 25 дек 2017, 10:19   |   .torrent скачан: 0 раз
Сидеров: 1  [ 0 байт/сек ]     Личеров: 0  [ 0 байт/сек ]  
  

Чего хочет Джульетта / L'embarras du choix (Эрик Лавэн / Eric Lavaine) [2017, Франция, мелодрама, комедия, WEB-DLRip] MVO (iTunes)

Сообщение Nakazhu » 25 дек 2017, 10:20

Чего хочет Джульетта / L'embarras du choix
Страна: Франция
Жанр: мелодрама, комедия
Год выпуска: 2017
Продолжительность: 01:34:06
Перевод: Профессиональный (многоголосый закадровый) | iTunes
Субтитры: нет
Оригинальная аудиодорожка: нет
Режиссер: Эрик Лавэн / Eric Lavaine
В ролях: Александра Лами, Арно Дюкре, Джейми Бамбер, Энн Маривин, Сабрина Уазани, Лионель Астье, Жером Коммандёр, Арно Анриет, Франк Дюбоск, Франк Гастамбид
Описание: Джульетта все время сталкивается с одной и той же проблемой: ей трудно определиться с выбором. Без участия отца и друзей она не в состоянии решить ни какое платье надеть, ни что заказать в ресторане, ни как провести вечер. Но когда на ее пути одновременно появляются Пол и Этьен, то она впервые решает сделать самостоятельный выбор.
Качество видео: WEB-DLRip | JULIETA_WEB_DL_1080p-BLUEBIRD
Формат видео: AVI
Видео: 720x320 (2.25:1), 24.000 fps, XviD build 73 ~1821 kbps avg, 0.33 bit/pixel
Аудио: 48 kHz, AC3 Dolby Digital, 3/2 (L,C,R,l,r) + LFE ch, ~384 kbps
Сэмпл
Код: Выделить всё
Код:
Код: Выделить всё
Format                      : AVI
Format/Info                 : Audio Video Interleave
File size                   : 1.46 GiB
Duration                    : 1 h 34 min
Overall bit rate            : 2 215 kb/s
Writing application         : VirtualDubMod 1.5.10.3 | www.virtualdub-fr.org || (build 2550/release)
Writing library             : VirtualDubMod build 2550/release
Video
ID                          : 0
Format                      : MPEG-4 Visual
Format profile              : Advanced Simple@L5
Format settings             : BVOP1 / Custom Matrix
Format settings, BVOP       : 1
Format settings, QPel       : No
Format settings, GMC        : No warppoints
Format settings, Matrix     : Custom
Codec ID                    : XVID
Codec ID/Hint               : XviD
Duration                    : 1 h 34 min
Bit rate                    : 1 821 kb/s
Width                       : 720 pixels
Height                      : 320 pixels
Display aspect ratio        : 2.25:1
Frame rate                  : 24.000 FPS
Color space                 : YUV
Chroma subsampling          : 4:2:0
Bit depth                   : 8 bits
Scan type                   : Progressive
Compression mode            : Lossy
Bits/(Pixel*Frame)          : 0.329
Stream size                 : 1.20 GiB (82%)
Writing library             : XviD 73
Audio
ID                          : 1
Format                      : AC-3
Format/Info                 : Audio Coding 3
Codec ID                    : 2000
Duration                    : 1 h 34 min
Bit rate mode               : Constant
Bit rate                    : 384 kb/s
Channel(s)                  : 6 channels
Channel positions           : Front: L C R, Side: L R, LFE
Sampling rate               : 48.0 kHz
Frame rate                  : 31.250 FPS (1536 SPF)
Bit depth                   : 16 bits
Compression mode            : Lossy
Stream size                 : 258 MiB (17%)
Alignment                   : Split accross interleaves
Interleave, duration        : 42  ms (1.00 video frame)
Interleave, preload duratio : 500  ms
Service kind                : Complete Main

 
Не забывайте говорить Спасибо. Не уходите с раздачи!   
Торрент: Зарегистрирован [25 дек 2017, 10:19] Для скачивания .torrent
необходима регистрация
Или скачать с помощью
MediaGet
Статус:
Проверен
 
.torrent скачан: 0 раз
Хэш: a6aa0ae152827bd46cac96537cd7bee21853ad4c
Размер: 1.46 ГБ (1 562 976 256 байт)
Стать Автором раздачи
 
 
Раздал: 0 байт
Скачал: 0 байт
Ратио: Inf.
Сообщения: 487468
Зарегистрирован: 17 апр 2014, 13:57


  • Похожие торренты
    Ответы
    Просмотры
    Последнее сообщение

Вернуться в Зарубежное кино

Ресурс не предоставляет электронные версии произведений, а занимается лишь коллекционированием и каталогизацией ссылок, присылаемых и публикуемых на форуме нашими читателями. Если вы являетесь правообладателем какого-либо представленного материала и не желаете чтобы ссылка на него находилась в нашем каталоге, свяжитесь с нами и мы незамедлительно удалим её. Файлы для обмена на трекере предоставлены пользователями сайта, и администрация не несёт ответственности за их содержание. Просьба не заливать файлы, защищенные авторскими правами, а также файлы нелегального содержания!
cron