Мстители: Война бесконечности / Avengers: Infinity War (Энтони Руссо, Джо Руссо) [2018, Фантастика, фэнтези, боевик, приключения, HDRip] трейлер

 
 Статистика раздачи 
Размер: 784.36 МБ   |  Зарегистрирован: 24 дек 2017, 17:14   |   .torrent скачан: 0 раз
Сидеров: 1  [ 0 байт/сек ]     Личеров: 0  [ 0 байт/сек ]  
  

Мстители: Война бесконечности / Avengers: Infinity War (Энтони Руссо, Джо Руссо) [2018, Фантастика, фэнтези, боевик, приключения, HDRip] трейлер

Сообщение Nakazhu » 24 дек 2017, 17:14

Мстители: Война бесконечности / Avengers: Infinity War
Тип раздаваемого материала: трейлер
Год выпуска фильма: 2018
Страна: США
Жанр: Фантастика, фэнтези, боевик, приключения
Продолжительность: 00:02:31
Перевод: Полное дублированние
Русские субтитры: нет
Режиссер: Энтони Руссо, Джо Руссо
В ролях: Роберд Дауни Младший, Крис Хемсворт, Том Хиддлстон, Элизабет Олсен, Том Холланд, Крис Пратт, Бенедикт Камбербэтч, Марк Руффало, Скарлетт Йоханссон и др.
Описание: Пока Мстители и их союзники продолжают защищать мир от различных опасностей, с которыми не смог бы справиться один супергерой, новая угроза возникает из космоса: Танос. Межгалактический тиран преследует цель собрать все шесть Камней Бесконечности — артефакты невероятной силы, с помощью которых можно менять реальность по своему желанию. Всё, с чем Мстители сталкивались ранее, вело к этому моменту — судьба Земли никогда ещё не была столь неопределённой...
Качество: HDRip
Формат видео: MKV
Видео кодек: H264
Аудио кодек: PCM/DTS/AC-3
Видео: H.264 (High@L4.1), 2048x858, 2.40:1, 23.976 fps, 34.3 Mbps
Аудио: RUS
1) PCM 5.1, 48 KHz, 6912 Kbps
2) DTS 5.1, 48 KHz, 1536 Kbps
3) AC3 5.1, 48 KHz, 640 Kbps
General
Unique ID : 170845520013219362908398730357244946848 (0x8087A679211B5765B93488FCC0AFE9A0)
Complete name : H:\=ENTERTAINMENT=\AVENGERS_WAR_TLR_A_2048X858_PDA_51_RU-thedigitaltheater.mkv
Format : Matroska
Format version : Version 4 / Version 2
File size : 784 MiB
Duration : 2mn 31s
Overall bit rate : 43.4 Mbps
Encoded date : UTC 2017-12-10 19:24:42
Writing application : mkvmerge v12.0.0 ('Trust / Lust') 64bit
Writing library : libebml v1.3.4 + libmatroska v1.4.5
Video
ID : 1
Format : AVC
Format/Info : Advanced Video Codec
Format profile : High@L4.1
Format settings, CABAC : Yes
Format settings, ReFrames : 4 frames
Codec ID : V_MPEG4/ISO/AVC
Duration : 2mn 31s
Bit rate : 34.3 Mbps
Width : 2 048 pixels
Height : 858 pixels
Display aspect ratio : 2.40:1
Frame rate mode : Constant
Frame rate : 23.976 (24000/1001) fps
Color space : YUV
Chroma subsampling : 4:2:0
Bit depth : 8 bits
Scan type : Progressive
Bits/(Pixel*Frame) : 0.813
Stream size : 620 MiB (79%)
Default : Yes
Forced : No
Color range : Limited
Color primaries : BT.709
Transfer characteristics : BT.709
Matrix coefficients : BT.601
Audio #1
ID : 2
Format : PCM
Codec ID : A_PCM/INT/LIT
Duration : 2mn 31s
Bit rate mode : Constant
Bit rate : 6 912 Kbps
Channel(s) : 6 channels
Sampling rate : 48.0 KHz
Frame rate : 46.875 fps (1024 spf)
Bit depth : 24 bits
Delay relative to video : 19ms
Stream size : 125 MiB (16%)
Title : PCM 5.1
Language : Russian
Default : Yes
Forced : No
Audio #2
ID : 3
Format : DTS
Format/Info : Digital Theater Systems
Mode : 16
Format settings, Endianness : Big
Codec ID : A_DTS
Duration : 2mn 31s
Bit rate mode : Constant
Bit rate : 1 536 Kbps
Channel(s) : 6 channels
Channel positions : Front: L C R, Side: L R, LFE
Sampling rate : 48.0 KHz
Frame rate : 93.750 fps (512 spf)
Bit depth : 24 bits
Compression mode : Lossy
Delay relative to video : 9ms
Stream size : 27.8 MiB (4%)
Title : DTS 5.1
Language : Russian
Default : No
Forced : No
Audio #3
ID : 4
Format : AC-3
Format/Info : Audio Coding 3
Mode extension : CM (complete main)
Format settings, Endianness : Big
Codec ID : A_AC3
Duration : 2mn 31s
Bit rate mode : Constant
Bit rate : 640 Kbps
Channel(s) : 6 channels
Channel positions : Front: L C R, Side: L R, LFE
Sampling rate : 48.0 KHz
Frame rate : 31.250 fps (1536 spf)
Compression mode : Lossy
Delay relative to video : 30ms
Stream size : 11.6 MiB (1%)
Title : AC3 5.1
Language : Russian
Default : No
Forced : No
 
Не забывайте говорить Спасибо. Не уходите с раздачи!   
Торрент: Зарегистрирован [24 дек 2017, 17:14] Для скачивания .torrent
необходима регистрация
Или скачать с помощью
MediaGet
Статус:
Проверен
 
.torrent скачан: 0 раз
Хэш: 95a49fcb53fdbaf61224dd1fec4c630073f0056a
Размер: 784.36 МБ (822 466 076 байт)
Стать Автором раздачи
 
 
Раздал: 0 байт
Скачал: 0 байт
Ратио: Inf.
Сообщения: 381150
Зарегистрирован: 17 апр 2014, 13:57


  • Похожие торренты
    Ответы
    Просмотры
    Последнее сообщение

Вернуться в Трейлеры и дополнительные материалы к фильмам

Ресурс не предоставляет электронные версии произведений, а занимается лишь коллекционированием и каталогизацией ссылок, присылаемых и публикуемых на форуме нашими читателями. Если вы являетесь правообладателем какого-либо представленного материала и не желаете чтобы ссылка на него находилась в нашем каталоге, свяжитесь с нами и мы незамедлительно удалим её. Файлы для обмена на трекере предоставлены пользователями сайта, и администрация не несёт ответственности за их содержание. Просьба не заливать файлы, защищенные авторскими правами, а также файлы нелегального содержания!
cron