Земля Симеона Праведного [2004, торжество Православия, DVB]

 
 Статистика раздачи 
Размер: 250.27 МБ   |  Зарегистрирован: 24 дек 2017, 15:58   |   .torrent скачан: 0 раз
Сидеров: 1  [ 0 байт/сек ]     Личеров: 0  [ 0 байт/сек ]  
  

Земля Симеона Праведного [2004, торжество Православия, DVB]

Сообщение Nakazhu » 24 дек 2017, 15:58

Земля Симеона Праведного

Дата/Год выпуска: 2004
Страна
: Россия
Жанр: торжество Православия
Продолжительность: 00:25:19
Перевод: Не требуется
Русские субтитры: нет
Оригинальная аудиодорожка: русский
Описание: Жизнеописание праведного Симеона Верхотурского.
качество: VHSRip
формат: AVI
Видео: MPEG4, XviD, 720x540 (4:3), 25.000 fps, 1 116 Kbps (0.115 bit/pixel)
Аудио: MP3, 44.1 KHz, 2 ch, 256 Kbps, CBR
Код: Выделить всё
General
Complete name                            : C:\Users\User\Downloads\Земля  Симеона Праведного.avi
Format                                   : AVI
Format/Info                              : Audio Video Interleave
File size                                : 250 MiB
Duration                                 : 25mn 19s
Overall bit rate                         : 1 381 Kbps
Video
ID                                       : 0
Format                                   : MPEG-4 Visual
Format profile                           : Advanced Simple@L5
Format settings, BVOP                    : 2
Format settings, QPel                    : No
Format settings, GMC                     : No warppoints
Format settings, Matrix                  : Default (H.263)
Codec ID                                 : XVID
Codec ID/Hint                            : XviD
Duration                                 : 25mn 19s
Bit rate                                 : 1 116 Kbps
Width                                    : 720 pixels
Height                                   : 540 pixels
Display aspect ratio                     : 4:3
Frame rate                               : 25.000 fps
Color space                              : YUV
Chroma subsampling                       : 4:2:0
Bit depth                                : 8 bits
Scan type                                : Progressive
Compression mode                         : Lossy
Bits/(Pixel*Frame)                       : 0.115
Stream size                              : 202 MiB (81%)
Writing library                          : XviD 1.2.1 (UTC 2008-12-04)
Audio
ID                                       : 1
Format                                   : MPEG Audio
Format version                           : Version 1
Format profile                           : Layer 3
Codec ID                                 : 55
Codec ID/Hint                            : MP3
Duration                                 : 25mn 19s
Bit rate mode                            : Constant
Bit rate                                 : 256 Kbps
Channel(s)                               : 2 channels
Sampling rate                            : 44.1 KHz
Compression mode                         : Lossy
Stream size                              : 46.3 MiB (19%)
Alignment                                : Split accross interleaves
Interleave, duration                     : 40 ms (1.00 video frame)
Interleave, preload duration             : 500 ms
 
Не забывайте говорить Спасибо. Не уходите с раздачи!   
Торрент: Зарегистрирован [24 дек 2017, 15:58] Для скачивания .torrent
необходима регистрация
Или скачать с помощью
MediaGet
Статус:
Проверен
 
.torrent скачан: 0 раз
Хэш: adefe64405825838d22cbabac7b8ee3ee87ef54a
Размер: 250.27 МБ (262 423 446 байт)
Стать Автором раздачи
 
 
Раздал: 0 байт
Скачал: 0 байт
Ратио: Inf.
Сообщения: 486736
Зарегистрирован: 17 апр 2014, 13:57


  • Похожие торренты
    Ответы
    Просмотры
    Последнее сообщение

Вернуться в Вера и религия (видео)

Ресурс не предоставляет электронные версии произведений, а занимается лишь коллекционированием и каталогизацией ссылок, присылаемых и публикуемых на форуме нашими читателями. Если вы являетесь правообладателем какого-либо представленного материала и не желаете чтобы ссылка на него находилась в нашем каталоге, свяжитесь с нами и мы незамедлительно удалим её. Файлы для обмена на трекере предоставлены пользователями сайта, и администрация не несёт ответственности за их содержание. Просьба не заливать файлы, защищенные авторскими правами, а также файлы нелегального содержания!
cron