Владимир Луговой, Павел Финн, Геннадий Гладков Владимир Луговой, Павел Финн, Геннадий Гладков - Музыка и сказки для детей 8, Маша и Витя против Диких гитар [Всеволод Абдулов, Михаил Боярский, Валентина Игнатьева, Александр Градский, Татьяна Дасковска

 
 Статистика раздачи 
Размер: 210.16 МБ   |  Зарегистрирован: 22 дек 2017, 14:43   |   .torrent скачан: 0 раз
Сидеров: 1  [ 0 байт/сек ]     Личеров: 0  [ 0 байт/сек ]  
  

Владимир Луговой, Павел Финн, Геннадий Гладков Владимир Луговой, Павел Финн, Геннадий Гладков - Музыка и сказки для детей 8, Маша и Витя против Диких гитар [Всеволод Абдулов, Михаил Боярский, Валентина Игнатьева, Александр Градский, Татьяна Дасковска

Сообщение Nakazhu » 22 дек 2017, 14:43

Маша и Витя против Диких гитар
Год выпуска: 1995
Имя автора:Владимир Луговой, Павел Финн, Геннадий Гладков
Исполнитель: Всеволод Абдулов, Михаил Боярский, Валентина Игнатьева, Александр Градский, Татьяна Дасковская, Гарри Бардин, Света Виноградова, Дима Голов и другие
Цикл/серия: Музыка и сказки для детей
Номер книги: 8
Жанр: Музыкальная сказка / аудиоспектакль
Издательство: Aprelevka Sound Production/Moroz Records
ISBN издания: ASP 95046 CD Austria
Тип издания: оцифровка
Категория: радиопостановка
Аудиокодек: FLAC
Битрейт: lossless
Вид битрейта: постоянный битрейт (CBR)
Частота дискретизации: 44 kHz
Количество каналов (моно-стерео): Стерео
Музыкальное сопровождение: присутствует постоянно
Время звучания: 00:38:15
Описание:
01. Вступление [0:01:50.50]
02. Маша и Витя [0:01:52.35]
03. Белоснежка в Царстве Кащея [0:01:50.15]
04. Напутствие Волшебника [0:02:16.27]
05. В дорогу за Белоснежкой [0:01:58.23]
06. Объединение Лешего, Кота Матвея и Бабы-Яги в ансамбль Дикие гитары [0:01:44.60]
07. Встреча с Печкой [0:02:20.22]
08. В гостях у Бабы-Яги [0:02:45.18]
09. За угольком в Царство Кащея [0:02:44.12]
10. Разоблачение Лешего [0:01:46.50]
11. Помощь доброй Яблоньки [0:02:23.35]
12. Встреча с диким Котом Матвеем [0:02:11.03]
13. За волшебной шишкой Старичка-Лесовичка [0:01:35.05]
14. Кащеево Царство [0:03:47.50]
15. Освобождение Белоснежки [0:01:29.57]
16. Витя против Кащея и Диких гитар [0:03:53.05]
17. Песня друзей-волшебников [0:01:45.33]
Доп. информация:
Код: Выделить всё
Exact Audio Copy V1.0 beta 3 from 29. August 2011
Отчёт EAC об извлечении, выполненном 21. декабря 2017, 22:45
VA / Маша и Витя против Диких гитар
Дисковод: Optiarc DVD RW AD-7280S   Adapter: 1  ID: 0
Режим чтения                 : Достоверность
Использование точного потока : Да
Отключение кэша аудио        : Да
Использование указателей C2  : Нет
Коррекция смещения при чтении                     : 48
Способность читать области Lead-in и Lead-out     : Нет
Заполнение пропущенных сэмплов тишиной            : Да
Удаление блоков с тишиной в начале и конце        : Нет
При вычислениях CRC использовались нулевые сэмплы : Да
Интерфейс                                         : Встроенный Win32-интерфейс для Win NT/2000
Выходной формат          : Пользовательский кодировщик
Выбранный битрейт        : 768 kBit/s
Качество                 : Высокий
Добавление ID3-тега      : Нет
Утилита сжатия           : C:\Program Files (x86)\Exact Audio Copy\FLAC\FLAC.EXE
Дополнительные параметры : -8 -V -T "ARTIST=%artist%" -T "TITLE=%title%" -T "ALBUM=%albumtitle%" -T "DATE=%year%" -T "TRACKNUMBER=%tracknr%" -T "GENRE=%genre%" -T "COMMENT=%comment%" -T "BAND=%albuminterpret%" -T "ALBUMARTIST=%albuminterpret%" -T "COMPOSER=%composer%" %haslyrics%--tag-from-file=LYRICS="%lyricsfile%"%haslyrics% -T "DISCNUMBER=%cdnumber%" -T "TOTALDISCS=%totalcds%" -T "TOTALTRACKS=%numtracks%" %hascover%--picture="%coverfile%"%hascover% %source% -o %dest%
TOC извлечённого CD
     Трек |   Старт  | Длительность | Начальный сектор | Конечный сектор
    ---------------------------------------------------------------------
       1  |  0:00.00 |    1:50.50   |           0      |       8299
       2  |  1:50.50 |    1:52.35   |        8300      |      16734
       3  |  3:43.10 |    1:50.15   |       16735      |      24999
       4  |  5:33.25 |    2:16.27   |       25000      |      35226
       5  |  7:49.52 |    1:58.23   |       35227      |      44099
       6  |  9:48.00 |    1:44.60   |       44100      |      51959
       7  | 11:32.60 |    2:20.22   |       51960      |      62481
       8  | 13:53.07 |    2:45.18   |       62482      |      74874
       9  | 16:38.25 |    2:44.12   |       74875      |      87186
      10  | 19:22.37 |    1:46.50   |       87187      |      95186
      11  | 21:09.12 |    2:23.35   |       95187      |     105946
      12  | 23:32.47 |    2:11.03   |      105947      |     115774
      13  | 25:43.50 |    1:35.05   |      115775      |     122904
      14  | 27:18.55 |    3:47.50   |      122905      |     139979
      15  | 31:06.30 |    1:29.57   |      139980      |     146711
      16  | 32:36.12 |    3:53.05   |      146712      |     164191
      17  | 36:29.17 |    1:45.33   |      164192      |     172099
Характеристики диапазона извлечения и сообщения об ошибках
Выбранный диапазон
     Имя файла D:\РАЗДАЧИ\VA-Маша и Витя против Диких гитар (1995)\VA - Маша и Витя против Диких гитар.wav
     Пиковый уровень 82.3 %
     Скорость извлечения 2.4 X
     Качество диапазона 100.0 %
     CRC теста 22BC9AA0
     CRC копии 22BC9AA0
     Копирование... OK
Ошибок не произошло
AccurateRip: сводка
Трек  1  отсутствует в базе данных
Трек  2  отсутствует в базе данных
Трек  3  отсутствует в базе данных
Трек  4  отсутствует в базе данных
Трек  5  отсутствует в базе данных
Трек  6  отсутствует в базе данных
Трек  7  отсутствует в базе данных
Трек  8  отсутствует в базе данных
Трек  9  отсутствует в базе данных
Трек 10  отсутствует в базе данных
Трек 11  отсутствует в базе данных
Трек 12  отсутствует в базе данных
Трек 13  отсутствует в базе данных
Трек 14  отсутствует в базе данных
Трек 15  отсутствует в базе данных
Трек 16  отсутствует в базе данных
Трек 17  отсутствует в базе данных
Ни одного трека нет в базе AccurateRip
Конец отчёта
==== Контрольная сумма отчёта 2812442F85F0AA4FC05F5A997A50254683DC3A0552FC887E2A999E8FBF526248 ====
 
Не забывайте говорить Спасибо. Не уходите с раздачи!   
Торрент: Зарегистрирован [22 дек 2017, 14:43] Скачать торрент
Скачать торрент
[ Размер 17.58 КБ / Просмотров 14 ]
Статус:
Проверен
 
.torrent скачан: 0 раз
Хэш: a17a7907735965157fad6233d777cb6193bfb294
Размер: 210.16 МБ (220 368 264 байт)
Стать Автором раздачи
 
 
Раздал: 0 байт
Скачал: 0 байт
Ратио: Inf.
Сообщения: 487468
Зарегистрирован: 17 апр 2014, 13:57


  • Похожие торренты
    Ответы
    Просмотры
    Последнее сообщение

Вернуться в Аудиокниги в lossless-форматах

Ресурс не предоставляет электронные версии произведений, а занимается лишь коллекционированием и каталогизацией ссылок, присылаемых и публикуемых на форуме нашими читателями. Если вы являетесь правообладателем какого-либо представленного материала и не желаете чтобы ссылка на него находилась в нашем каталоге, свяжитесь с нами и мы незамедлительно удалим её. Файлы для обмена на трекере предоставлены пользователями сайта, и администрация не несёт ответственности за их содержание. Просьба не заливать файлы, защищенные авторскими правами, а также файлы нелегального содержания!
cron