Оно / It (Андрес Мускетти / Andrés Muschietti) [2017, США, Канада, ужасы, драма, BDRip-AVC] Dub + Sub Rus

 
 Статистика раздачи 
Размер: 1.46 ГБ   |  Зарегистрирован: 20 дек 2017, 13:20   |   .torrent скачан: 0 раз
Сидеров: 1  [ 0 байт/сек ]     Личеров: 0  [ 0 байт/сек ]  
  

Оно / It (Андрес Мускетти / Andrés Muschietti) [2017, США, Канада, ужасы, драма, BDRip-AVC] Dub + Sub Rus

Сообщение Nakazhu » 20 дек 2017, 13:20


Оно / It

«А чего боишься ты?»


Страна: США, Канада
Жанр: ужасы, драма
Год выпуска: 2017
Продолжительность: 02:14:42
Перевод: Профессиональный (дублированный) iTunes
Субтитры: русские (форсированные)
Оригинальная аудиодорожка: нет
Режиссер: Андрес Мускетти / Andrés Muschietti
В ролях: Джейден Либерер, Джереми Рэй Тейлор, София Лиллис, Финн Вулфард, Чоузен Джейкобс, Джек Грейзер, Уайатт Олефф, Билл Скарсгард, Николас Хэмилтон, Джейк Сим, Логан Томпсон, Оуэн Тиг, Джексон Роберт Скотт, Стивен Богерт, Стюарт Хьюз
Описание: Когда в городке Дерри, штат Мэн, начинают пропадать дети, несколько ребят сталкиваются со своими величайшими страхами и вынуждены помериться силами со злобным клоуном Пеннивайзом, чьи проявления жестокости и список жертв уходят в глубь веков.


Качество видео: BDRip-AVC / It.2017.REMUX.1080p.BluRay.AVC.Atmos.TrueHD.7.1-iFT
Формат видео: MKV
Видео: MPEG-4 AVC, 978x408 (2.40:1), 23.976 fps, ~1354 kbps avg, 0.142 bit/pixel
Аудио: 48 kHz, AC3 Dolby Digital, 2/0 (L,R) ch, ~192 kbps avg
Код: Выделить всё
Код:
Код: Выделить всё
Complete name               : D:\Раздачи\Оно (2017) BDRip-AVC_ivanes20031987.mkv
Format                      : Matroska
Format version              : Version 2
File size                   : 1.46 GiB
Duration                    : 2 h 14 min
Overall bit rate            : 1 547 kb/s
Encoded date                : UTC 2017-12-20 09:57:39
Writing application         : mkvmerge v4.4.0 ('Die Wiederkehr') сборка от Jan  3 2011 21:40:45
Writing library             : libebml v1.0.0 + libmatroska v1.0.0
Video
ID                          : 1
Format                      : AVC
Format/Info                 : Advanced Video Codec
Format profile              : High@L4.1
Format settings, CABAC      : Yes
Format settings, RefFrames  : 14 frames
Codec ID                    : V_MPEG4/ISO/AVC
Duration                    : 2 h 14 min
Bit rate                    : 1 354 kb/s
Width                       : 978 pixels
Height                      : 408 pixels
Display aspect ratio        : 2.40:1
Frame rate mode             : Constant
Frame rate                  : 23.976 (24000/1001) FPS
Color space                 : YUV
Chroma subsampling          : 4:2:0
Bit depth                   : 8 bits
Scan type                   : Progressive
Bits/(Pixel*Frame)          : 0.142
Stream size                 : 1.25 GiB (86%)
Writing library             : x264 core 152 r2851kMod ba24899
Encoding settings           : cabac=1 / ref=14 / deblock=1:-1:-1 / analyse=0x3:0x133 / me=umh / subme=11 / psy=1 / fade_compensate=0.00 / psy_rd=1.00:0.00 / mixed_ref=1 / me_range=64 / chroma_me=1 / trellis=2 / 8x8dct=1 / cqm=0 / deadzone=21,11 / fast_pskip=0 / chroma_qp_offset=-2 / threads=13 / lookahead_threads=3 / sliced_threads=0 / nr=0 / decimate=0 / interlaced=0 / bluray_compat=0 / constrained_intra=0 / bframes=14 / b_pyramid=2 / b_adapt=2 / b_bias=0 / direct=1 / weightb=1 / open_gop=0 / weightp=2 / keyint=240 / keyint_min=23 / scenecut=40 / intra_refresh=0 / rc_lookahead=90 / rc=2pass / mbtree=0 / bitrate=1354 / ratetol=1.0 / qcomp=0.60 / qpmin=0 / qpmax=69 / qpstep=4 / cplxblur=20.0 / qblur=0.5 / vbv_maxrate=50000 / vbv_bufsize=62500 / nal_hrd=none / filler=0 / ip_ratio=1.40 / pb_ratio=1.30 / aq=1:1.00
Default                     : Yes
Forced                      : No
Audio
ID                          : 2
Format                      : AC-3
Format/Info                 : Audio Coding 3
Format settings, Endianness : Big
Codec ID                    : A_AC3
Duration                    : 2 h 14 min
Bit rate mode               : Constant
Bit rate                    : 192 kb/s
Channel(s)                  : 2 channels
Channel positions           : Front: L R
Sampling rate               : 48.0 kHz
Frame rate                  : 31.250 FPS (1536 SPF)
Bit depth                   : 16 bits
Compression mode            : Lossy
Stream size                 : 185 MiB (12%)
Title                       : iTunes
Language                    : Russian
Service kind                : Complete Main
Default                     : Yes
Forced                      : No
Text
ID                          : 3
Format                      : UTF-8
Codec ID                    : S_TEXT/UTF8
Codec ID/Info               : UTF-8 Plain Text
Title                       : Forced
Language                    : Russian
Default                     : Yes
Forced                      : No

Код:
Код: Выделить всё
raw [info]: 978x408p 1:1 @ 24000/1001 fps (cfr)
x264 [info]: using SAR=1/1
x264 [info]: using cpu capabilities: MMX2 SSE2Fast SSSE3 SSE4.2
x264 [info]: profile High, level 4.1
x264 [info]: cabac=1 ref=14 deblock=1:-1:-1 analyse=0x3:0x133 me=umh subme=11 psy=1 fade_compensate=0.00 psy_rd=1.00:0.00 mixed_ref=1 me_range=64 chroma_me=1 trellis=2 8x8dct=1 cqm=0 deadzone=21,11 fast_pskip=0 chroma_qp_offset=-2 threads=13 lookahead_threads=3 sliced_threads=0 nr=0 decimate=0 interlaced=0 bluray_compat=0 constrained_intra=0 bframes=14 b_pyramid=2 b_adapt=2 b_bias=0 direct=1 weightb=1 open_gop=0 weightp=2 keyint=240 keyint_min=23 scenecut=40 intra_refresh=0 rc_lookahead=90 rc=2pass mbtree=0 bitrate=1354 ratetol=1.0 qcomp=0.60 qpmin=0 qpmax=69 qpstep=4 cplxblur=20.0 qblur=0.5 vbv_maxrate=50000 vbv_bufsize=62500 nal_hrd=none filler=0 ip_ratio=1.40 pb_ratio=1.30 aq=1:1.00
frames     fps     kb/s    elapsed   remain     size    est.size
x264 [info]: frame I:1846  Avg QP:15.93  size: 61210
x264 [info]: frame P:43677 Avg QP:19.65  size: 15112
x264 [info]: frame B:148261 Avg QP:20.88  size:  4008
x264 [info]: consecutive B-frames:  3.0%  3.4%  9.9% 19.8% 17.3% 29.9%  8.4%  3.9%  3.6%  0.1%  0.1%  0.1%  0.1%  0.1%  0.4%
x264 [info]: mb I  I16..4:  4.0% 76.6% 19.4%
x264 [info]: mb P  I16..4:  0.7%  7.0%  1.4%  P16..4: 32.1% 35.7% 13.5%  2.2%  0.3%    skip: 7.0%
x264 [info]: mb B  I16..4:  0.1%  0.8%  0.2%  B16..8: 34.0% 18.3%  2.7%  direct: 3.2%  skip:40.7%  L0:42.1% L1:48.2% BI: 9.7%
x264 [info]: 8x8 transform intra:76.5% inter:57.8%
x264 [info]: coded y,uvDC,uvAC intra: 85.6% 78.1% 49.4% inter: 16.0% 12.1% 5.2%
x264 [info]: i16 v,h,dc,p: 20% 26%  7% 47%
x264 [info]: i8 v,h,dc,ddl,ddr,vr,hd,vl,hu: 12%  9%  6%  9% 13% 13% 13% 12% 13%
x264 [info]: i4 v,h,dc,ddl,ddr,vr,hd,vl,hu: 12% 18%  5%  7% 12% 12% 12%  9% 12%
x264 [info]: i8c dc,h,v,p: 35% 29% 19% 17%
x264 [info]: Weighted P-Frames: Y:4.3% UV:2.1%
x264 [info]: ref P L0: 52.2% 10.3% 14.8%  5.6%  4.5%  3.1%  2.8%  1.4%  1.3%  1.0%  1.0%  0.8%  0.8%  0.7%  0.1%  0.0%
x264 [info]: ref B L0: 74.1% 10.9%  5.3%  2.7%  1.8%  1.5%  1.1%  0.7%  0.6%  0.5%  0.4%  0.4%  0.1%
x264 [info]: ref B L1: 94.8%  5.2%
x264 [info]: kb/s:1353.30

 
Не забывайте говорить Спасибо. Не уходите с раздачи!   
Торрент: Зарегистрирован [20 дек 2017, 13:20] Скачать торрент
Скачать торрент
[ Размер 15.03 КБ / Просмотров 11 ]
Статус:
Проверен
 
.torrent скачан: 0 раз
Хэш: d3b5ab777bbdfd7784c7841c383fa923422bf104
Размер: 1.46 ГБ (1 562 897 151 байт)
Стать Автором раздачи
 
 
Раздал: 0 байт
Скачал: 0 байт
Ратио: Inf.
Сообщения: 487468
Зарегистрирован: 17 апр 2014, 13:57


  • Похожие торренты
    Ответы
    Просмотры
    Последнее сообщение

Вернуться в Зарубежное кино

Ресурс не предоставляет электронные версии произведений, а занимается лишь коллекционированием и каталогизацией ссылок, присылаемых и публикуемых на форуме нашими читателями. Если вы являетесь правообладателем какого-либо представленного материала и не желаете чтобы ссылка на него находилась в нашем каталоге, свяжитесь с нами и мы незамедлительно удалим её. Файлы для обмена на трекере предоставлены пользователями сайта, и администрация не несёт ответственности за их содержание. Просьба не заливать файлы, защищенные авторскими правами, а также файлы нелегального содержания!
cron