Тем временем с Александром Архангельским. Сезон 2017 - 2018 (Сергей Примак) [2017 - 2018, ток-шоу, DVB] Обновлено 20.12.2017. В раздаче 13 выпусков

 
 Статистика раздачи 
Размер: 6.04 ГБ   |  Зарегистрирован: 20 дек 2017, 01:56   |   .torrent скачан: 0 раз
Сидеров: 1  [ 0 байт/сек ]     Личеров: 0  [ 0 байт/сек ]  
  

Тем временем с Александром Архангельским. Сезон 2017 - 2018 (Сергей Примак) [2017 - 2018, ток-шоу, DVB] Обновлено 20.12.2017. В раздаче 13 выпусков

Сообщение Nakazhu » 20 дек 2017, 01:56

Тем временем с Александром Архангельским. Сезон 2017 - 2018. 3 выпуска
Дата/Год выпуска: 2017 - 2018
Страна: Россия
Жанр: ток-шоу
Продолжительность: 00:39:00 выпуск
Перевод: Не требуется
Оригинальная аудиодорожка: русский
Режиссер: Сергей Примак
Телеканал: Россия Культура
Описание: Разговор в студии посвящен ключевым культурным событиям истории и актуальным явлениям, а также политическим и экономическим темам - в той мере, в какой они затрагивают интересы культуры. Программа с выраженным авторским началом, с правом на субъективную оценку, но с обязательным правилом: давать разные точки зрения на любую проблему, сталкивать разные подходы.
Доп. информация: Все раздачи программы: http://rutracker.org/forum/tracker.php?nm=%D0%A2%D0%B5%D0%BC%20%D0%B2%D1%80%D0%B5...0%BA%D0%B8%D0%BC
качество: DVB
формат: TS/M2TS
Видео: Advanced Video Codec, 768@720x576, 4:3, 1327 Кбит/сек, 0.128 bit/pixel, 25 fps
Аудио: MPEG Audio Layer 2, 192 Кбит/сек, 48000Hz 2 chanal
2017-09-12.Есть урбанизации начало, нет урбанизации
2017-09-19.Почему искусство так дорого стоит
2017-09-26.Большой террор
2017-10-03.Цифровая повседневность
2017-10-10.Война памятников
2017-10-17.Русский рэп
2017-10-24.Принуждение к чтению
2017-10-31.Спор историков. Боль современников
2017-11-07.Великое искусство и жестокая власть (к 100-летию Октябрьской революции)
2017-11-14.Мы попались в нейронные сети
2017-11-28.От жития до глянцевых журналов - как сохранять биографическую память
2017-12-05.Как защищать Просвещение
2017-12-12.Некарательная психиатрия
2017-12-19.Богословие и светская культура - параллельно, вместе или врозь
Код: Выделить всё
Общее
Идентификатор                            : 1 (0x1)
Полное имя                               : D:\Видео\Тем временем. Сезон 2017-2018. DVB\2017-09-12.Есть урбанизации начало, нет урбанизации конца.ts
Формат                                   : MPEG-TS
Размер файла                             : 442 Мбайт
Продолжительность                        : 38 м.
Режим общего битрейта                    : Переменный
Общий поток                              : 1600 Кбит/сек
Видео
Идентификатор                            : 205 (0xCD)
Идентификатор меню                       : 1005 (0x3ED)
Формат                                   : AVC
Формат/Информация                        : Advanced Video Codec
Профиль формата                          : High@L3.0
Параметр CABAC формата                   : Да
Параметр ReFrames формата                : 4 кадра
Идентификатор кодека                     : 27
Продолжительность                        : 38 м.
Битрейт                                  : 1327 Кбит/сек
Ширина                                   : 720 пикселей
Высота                                   : 576 пикселей
Соотношение сторон                       : 4:3
Частота кадров                           : 25,000 кадров/сек
Стандарт вещания                         : Component
Цветовое пространство                    : YUV
Субдискретизация насыщенности            : 4:2:0
Битовая глубина                          : 8 бит
Тип развёртки                            : Чересстрочная
Порядок развёртки                        : Верхнее поле первое
Бит/(Пиксели*Кадры)                      : 0.128
Размер потока                            : 367 Мбайт (83%)
Основные цвета                           : BT.601 PAL
Характеристики трансфера                 : BT.470 System B, BT.470 System G
Коэффициенты матрицы                     : BT.601
colour_range                             : Limited
Аудио
Идентификатор                            : 305 (0x131)
Идентификатор меню                       : 1005 (0x3ED)
Формат                                   : MPEG Audio
Версия формата                           : Version 1
Профиль формата                          : Layer 2
Идентификатор кодека                     : 3
Продолжительность                        : 38 м.
Вид битрейта                             : Постоянный
Битрейт                                  : 192 Кбит/сек
Каналы                                   : 2 канала
Частота                                  : 48,0 КГц
Метод сжатия                             : С потерями
Задержка видео                           : -40 мс.
Размер потока                            : 53,1 Мбайт (12%)
Язык                                     : Russian
Код: Выделить всё
Внимание! Раздача ведётся путём добавления новых выпусков; при каждом добавлении создаётся новый торрент. Чтобы начать докачку нового выпуска, пользователям необходимо сделать следующее:
(1) остановить скачивание,
(2) удалить старый торрент у себя из клиента (старые серии удалять не надо),
(3) скачать новый торрент и запустить его у себя в клиенте вместо старого, при этом указать клиенту путь в старую папку куда и должно происходить скачивание новых выпусков.
Ваш клиент при этом должен произвести хеширование (проверку) старой папки (если не производит сам - помогите ему сделать это). В результате он будет докачивать только те выпуски, которых у Вас ещё нет. Старые выпуски при этом не удаляются, а продолжают раздаваться!
Eсли Вы уже удалили старые выпуски, то предотвратить их повторную закачку можно, сняв галочки в соответствующих местах при запуске нового торрента. По возможности, желательно не удалять старые выпуски как можно дольше, чтобы релизёр не только продолжал раздавать старые выпуски, но и смог сконцентрироваться на новых.
 
Не забывайте говорить Спасибо. Не уходите с раздачи!   
Торрент: Зарегистрирован [20 дек 2017, 01:56] Для скачивания .torrent
необходима регистрация
Или скачать с помощью
MediaGet
Статус:
Проверен
 
.torrent скачан: 0 раз
Хэш: 60aceb2040f7d166221068fbf130bfd91dac207f
Размер: 6.04 ГБ (6 487 845 596 байт)
Стать Автором раздачи
 
 
Раздал: 0 байт
Скачал: 0 байт
Ратио: Inf.
Сообщения: 380173
Зарегистрирован: 17 апр 2014, 13:57


  • Похожие торренты
    Ответы
    Просмотры
    Последнее сообщение

Вернуться в Социальные ток-шоу

Ресурс не предоставляет электронные версии произведений, а занимается лишь коллекционированием и каталогизацией ссылок, присылаемых и публикуемых на форуме нашими читателями. Если вы являетесь правообладателем какого-либо представленного материала и не желаете чтобы ссылка на него находилась в нашем каталоге, свяжитесь с нами и мы незамедлительно удалим её. Файлы для обмена на трекере предоставлены пользователями сайта, и администрация не несёт ответственности за их содержание. Просьба не заливать файлы, защищенные авторскими правами, а также файлы нелегального содержания!
cron