Оно / It (Андрес Мускетти / Andrés Muschietti) [2017, США, Канада, Ужасы, драма, BDRip] Dub + Sub Rus

 
 Статистика раздачи 
Размер: 1.46 ГБ   |  Зарегистрирован: 20 дек 2017, 00:07   |   .torrent скачан: 0 раз
Сидеров: 1  [ 0 байт/сек ]     Личеров: 0  [ 0 байт/сек ]  
  

Оно / It (Андрес Мускетти / Andrés Muschietti) [2017, США, Канада, Ужасы, драма, BDRip] Dub + Sub Rus

Сообщение Nakazhu » 20 дек 2017, 00:07

Оно / It
Страна: США, Канада
Жанр: Ужасы, драма
Год выпуска: 2017
Продолжительность: 02:14:42
Перевод: Профессиональный (дублированный) | iTunes
Субтитры: русские
Оригинальная аудиодорожка: нет
Режиссер: Андрес Мускетти / Andrés Muschietti
В ролях: Джейден Либерер, Джереми Рэй Тейлор, София Лиллис, Финн Вулфард, Чоузен Джейкобс, Джек Грейзер, Уайатт Олефф, Билл Скарсгард, Николас Хэмилтон, Джейк Сим, Логан Томпсон, Оуэн Тиг, Джексон Роберт Скотт, Стивен Богерт, Стюарт Хьюз
Описание: Когда в городке Дерри, штат Мэн, начинают пропадать дети, несколько ребят сталкиваются со своими величайшими страхами и вынуждены помериться силами со злобным клоуном Пеннивайзом, чьи проявления жестокости и список жертв уходят в глубь веков.
Качество видео: BDRip | It.2017.1080p.BluRay.AVC.TrueHD.7.1.Atmos-FGT
Формат видео: AVI
Видео: 720x304 (2.37:1), 23.976 fps, XviD build 73 ~1160 kbps avg, 0.22 bit/pixel
Аудио : 48 kHz, AC3 Dolby Digital, 3/2 (L,C,R,l,r) + LFE ch, ~384 kbps
Сэмпл
Код:
Код: Выделить всё
Format                      : AVI
Format/Info                 : Audio Video Interleave
File size                   : 1.46 GiB
Duration                    : 2 h 14 min
Overall bit rate            : 1 554 kb/s
Writing application         : VirtualDubMod 1.5.10.3 | www.virtualdub-fr.org || (build 2550/release)
Writing library             : VirtualDubMod build 2550/release
Video
ID                          : 0
Format                      : MPEG-4 Visual
Format profile              : Advanced Simple@L5
Format settings             : BVOP1 / Custom Matrix
Format settings, BVOP       : 1
Format settings, QPel       : No
Format settings, GMC        : No warppoints
Format settings, Matrix     : Custom
Codec ID                    : XVID
Codec ID/Hint               : XviD
Duration                    : 2 h 14 min
Bit rate                    : 1 161 kb/s
Width                       : 720 pixels
Height                      : 304 pixels
Display aspect ratio        : 2.35:1
Frame rate                  : 23.976 (24000/1001) FPS
Color space                 : YUV
Chroma subsampling          : 4:2:0
Bit depth                   : 8 bits
Scan type                   : Progressive
Compression mode            : Lossy
Bits/(Pixel*Frame)          : 0.221
Stream size                 : 1.09 GiB (75%)
Writing library             : XviD 73
Audio
ID                          : 1
Format                      : AC-3
Format/Info                 : Audio Coding 3
Codec ID                    : 2000
Duration                    : 2 h 14 min
Bit rate mode               : Constant
Bit rate                    : 384 kb/s
Channel(s)                  : 6 channels
Channel positions           : Front: L C R, Side: L R, LFE
Sampling rate               : 48.0 kHz
Frame rate                  : 31.250 FPS (1536 SPF)
Bit depth                   : 16 bits
Compression mode            : Lossy
Stream size                 : 370 MiB (25%)
Alignment                   : Split accross interleaves
Interleave, duration        : 42  ms (1.00 video frame)
Interleave, preload duratio : 500  ms
Service kind                : Complete Main

 
Не забывайте говорить Спасибо. Не уходите с раздачи!   
Торрент: Зарегистрирован [20 дек 2017, 00:07] Для скачивания .torrent
необходима регистрация
Или скачать с помощью
MediaGet
Статус:
Проверен
 
.torrent скачан: 0 раз
Хэш: c48b45d7814ea0f7b9c5b9aa5174dad20e993434
Размер: 1.46 ГБ (1 570 459 674 байт)
Стать Автором раздачи
 
 
Раздал: 0 байт
Скачал: 0 байт
Ратио: Inf.
Сообщения: 487468
Зарегистрирован: 17 апр 2014, 13:57


  • Похожие торренты
    Ответы
    Просмотры
    Последнее сообщение

Вернуться в Зарубежное кино

Ресурс не предоставляет электронные версии произведений, а занимается лишь коллекционированием и каталогизацией ссылок, присылаемых и публикуемых на форуме нашими читателями. Если вы являетесь правообладателем какого-либо представленного материала и не желаете чтобы ссылка на него находилась в нашем каталоге, свяжитесь с нами и мы незамедлительно удалим её. Файлы для обмена на трекере предоставлены пользователями сайта, и администрация не несёт ответственности за их содержание. Просьба не заливать файлы, защищенные авторскими правами, а также файлы нелегального содержания!
cron